Ветеран / Сезон: 1 / Серии: 1-4 из 4 (Денис Скворцов) [2014, боевик, HDTVRip]


by Boris G ®
23-Dec-2018 15:24

[Quote]

Ветеран / Сезон: 1 / Серии: 1-4 из 4 (Денис Скворцов) [2014, боевик, HDTVRip]

Ветеран- Год выпуска: 2014
Производство: «Триикс Медиа»
Жанр: Боевик
Продолжительность: ~ 45 мин.
Субтитры: Отсутствуют-Режиссер: Денис Скворцов-В ролях: Андрей Чубченко, Варвара Бородина, Алексей Шевченков, Григорий Зельцер, Виталий Пичик, Волли Хаммер, Борис Бедросов, Александр Самохин, Михаил Ложкин, Валентин Корнезо, Галина Бокашевская, Анна Некрасова (II), Антон Хатеев и др.-Описание: Новиков считает, что его жизнь не удалась. Бывший военный, состоящий на специальном учете, одинокий… Нестарый, в сущности, человек – он никому не нужен. Он получает маленькую пенсию, иногда разгружает вагоны. На жизнь хватает. А еще Новиков регулярно ходит на обследования в районную поликлинику. Он состоит на учете у психиатра. Ему положены успокаивающие таблетки и регулярный осмотр.
В один день вся жизнь Новикова меняется.-Релиз группы -Все раздачи сериала
Семпл
Кино-Театр-Качество:HDTVRip [ HDTVRip 720p]
Формат: AVI
Видео кодек: XviD
Аудио кодек: AC3
Видео: 720x400 (1.80:1), 25 fps, XviD build 73 ~1506 kbps avg, 0.21 bit/pixel
Аудио: 48 kHz, AC3 Dolby Digital, 2/0 (L,R) ch, ~192.00 kbps avg

MediaInfo

Код:General
Complete name : D:\Ветеран\Veteran.s01e01.2014.HDTVRip.RG.Russkie.serialy.avi
Format : AVI
Format/Info : Audio Video Interleave
File size : 548 MiB
Duration : 44mn 52s
Overall bit rate : 1 708 Kbps
Writing application : VirtualDubMod 1.5.10.3 | www.virtualdub-fr.org || (build 2550/release)
Writing library : VirtualDubMod build 2550/release
Video
ID : 0
Format : MPEG-4 Visual
Format profile : Advanced Simple@L5
Format settings, BVOP : 2
Format settings, QPel : No
Format settings, GMC : No warppoints
Format settings, Matrix : Custom
Codec ID : XVID
Codec ID/Hint : XviD
Duration : 44mn 52s
Bit rate : 1 507 Kbps
Width : 720 pixels
Height : 400 pixels
Display aspect ratio : 16:9
Frame rate : 25.000 fps
Color space : YUV
Chroma subsampling : 4:2:0
Bit depth : 8 bits
Scan type : Progressive
Compression mode : Lossy
Bits/(Pixel*Frame) : 0.209
Stream size : 484 MiB (88%)
Writing library : XviD 73
Audio
ID : 1
Format : AC-3
Format/Info : Audio Coding 3
Mode extension : CM (complete main)
Format settings, Endianness : Big
Codec ID : 2000
Duration : 44mn 52s
Bit rate mode : Constant
Bit rate : 192 Kbps
Channel(s) : 2 channels
Channel positions : Front: L R
Sampling rate : 48.0 KHz
Bit depth : 16 bits
Compression mode : Lossy
Stream size : 61.6 MiB (11%)
Alignment : Split accross interleaves
Interleave, duration : 40 ms (1.00 video frame)
Interleave, preload duration : 500 ms

Скриншоты









Download

Download free and at maximum speed!

How to Download? · What is a torrent? · Ratings and Limitations




You cannot post new topics in this forum
You cannot reply to topics in this forum
You cannot edit your posts in this forum
You cannot delete your posts in this forum
You cannot vote in polls in this forum
You cannot attach files in this forum
You cannot download files in this forum