Ворона / Серии: 1-12 из 12 (Ольга Ангелова, Евгений Сосницкий) [2018, детектив, WEBRip]


by Boris G ®
23-Дек-2018 15:24

[Цитировать]

Ворона / Серии: 1-12 из 12 (Ольга Ангелова, Евгений Сосницкий) [2018, детектив, WEBRip]

Ворона
Год выпуска: 2018
Производство: Мармот-фильм
Жанр: детектив
Продолжительность: ~00:48:00 серия
Субтитры: нет
Режиссёр: Ольга Ангелова, Евгений Сосницкий
В ролях: Елизавета Боярская, Анатолий Белый, Светлана Бакулина, Игорь Черневич, Владимир Селезнев, Елизавета Толубеева, Сергей Колос, Василий Щипицын, Ирина Патракова, Виталий Коваленко, Глафира Снятовская, Владимир Колганов
Описание: Анна Воронцова, которую коллеги за глаза зовут Вороной - неуживчивый старший следователь районного ОВД. У нее все идет наперекосяк: выскочка-карьерист становится замначальника в обход нее, мать не одобряет ее работу, а попытки заниматься расследованием реальных дел пресекаются указанием сверху: нужно переключиться на поиски какого-то бабника-фотографа Краснова, которого уже три недели не может найти жена.

Реклама: Нет.
Кинопоиск
Все раздачи сериала
Sample
Качество: WEBRip
Формат: AVI
Видео кодек: XviD
Аудио кодек: AC3
Видео: 704x352 (2.00:1), 25 fps, XviD build 73 ~1700 kbps avg, 0.272 bit/pixel
Аудио: 48.0 kHz, AC3 Dolby Digital, 2/0 (L,R) ch, ~ 192 kbps

Внимание! Раздача ведётся путём добавления новых серий

Раздача ведётся путём добавления новых серий, при каждом добавлении создаётся новый торрент. Чтобы начать докачку новой серии, пользователям необходимо сделать следующее:
- Остановить скачивание.
- Удалить старый торрент у себя из клиента (старые серии удалять не надо).
- Скачать новый торрент и запустить его у себя в клиенте вместо старого, при этом указать клиенту путь в старую папку куда и должно происходить скачивание новых серий.
Ваш клиент при этом должен произвести хеширование (проверку) старой папки (если не производит сам - помогите ему сделать это), и будет докачивать только те серии которых у вас ещё нет. Старые серии при этом не удаляются, а продолжают раздаваться!
Если вы уже удалили старые серии, то предотвратить повторную закачку старых серий можно, отжав галочку в соответствующих местах при запуске нового торрента. По возможности, желательно не удалять старые серии как можно дольше, чтобы релизер не столько продолжал раздавать старые серии, а смог сконцентрироваться на новых.

MI

General
Complete name : D:\Ворона 2018\Ворона 2018 s01e01.avi
Format : AVI
Format/Info : Audio Video Interleave
File size : 653 MiB
Duration : 48 min 20 s
Overall bit rate : 1 888 kb/s
Writing application : VirtualDubMod 1.5.10.3 | www.virtualdub-fr.org || (build 2550/release)
Writing library : VirtualDubMod build 2550/release
Video
ID : 0
Format : MPEG-4 Visual
Format profile : Advanced Simple@L5
Format settings : BVOP1
Format settings, BVOP : 1
Format settings, QPel : No
Format settings, GMC : No warppoints
Format settings, Matrix : Default (MPEG)
Codec ID : XVID
Codec ID/Hint : XviD
Duration : 48 min 20 s
Bit rate : 1 687 kb/s
Width : 704 pixels
Height : 352 pixels
Display aspect ratio : 2.000
Frame rate : 25.000 FPS
Color space : YUV
Chroma subsampling : 4:2:0
Bit depth : 8 bits
Scan type : Progressive
Compression mode : Lossy
Bits/(Pixel*Frame) : 0.272
Stream size : 583 MiB (89%)
Writing library : XviD 73
Audio
ID : 1
Format : AC-3
Format/Info : Audio Coding 3
Codec ID : 2000
Duration : 48 min 20 s
Bit rate mode : Constant
Bit rate : 192 kb/s
Channel(s) : 2 channels
Channel positions : Front: L R
Sampling rate : 48.0 kHz
Frame rate : 31.250 FPS (1536 SPF)
Bit depth : 16 bits
Compression mode : Lossy
Stream size : 66.4 MiB (10%)
Alignment : Split accross interleaves
Interleave, duration : 40 ms (1.00 video frame)
Interleave, preload duratio : 500 ms
Service kind : Complete Main

Скриншоты


Скачать

Скачать бесплатно и на максимальной скорости!

Как скачивать? · Что такое торрент? · Рейтинг и ограничения




Вы не можете начинать темы
Вы не можете отвечать на сообщения
Вы не можете редактировать свои сообщения
Вы не можете удалять свои сообщения
Вы не можете голосовать в опросах
Вы не можете прикреплять файлы к сообщениям
Вы не можете скачивать файлы