В чужом краю / Серии: 1-13 из 13 (Станислав Дремов) [2018, мелодрама, HDTVRip]


by Boris G ®
23-Dec-2018 15:24

[Quote]

В чужом краю / Серии: 1-13 из 13 (Станислав Дремов) [2018, мелодрама, HDTVRip]

В чужом краю
Год выпуска: 2018
Производство: Кинокомпания «Gamma»
Жанр: мелодрама
Продолжительность: ~00:40:00 серия
Субтитры: нет
Режиссёр: Станислав Дремов
В ролях: Наталия Антонова, Ирина Розанова, Иван Оганесян, Юрий Батурин, Владимир Симонов, Екатерина Вуличенко, Анна Казючиц, Сергей Комаров (II), Ирина Рудоминская, Сергей Апрельский, Юлия Дробот, Вильгельмина Меттель, Даниил Коновалов, Полина Маршалл, Камилла Мухлисова
Описание: Потеряв мужа и кров, Галина Кутепова приезжает с детьми и матерью в края, которые некогда были ей родными. Галина заново знакомится с отцом, которого не видела лет тридцать, ищет работу и смысл существования. Трудности, которые переносит героиня, закаляют ее, заставляют учиться принимать судьбоносные решения самостоятельно. Постепенно Галина обретает всё, о чём могла раньше только мечтать: новый дом, любимую работу и любимого мужчину. Однако внезапно к Галине возвращается муж, который тянет ее обратно – в старую жизнь...

Реклама: Нет.
Кинопоиск
Все раздачи сериала
Sample
Качество: HDTVRip - Files-x
Формат: AVI
Видео кодек: XviD
Аудио кодек: AC3
Видео: 720x400 (1.80:1), 25 fps, XviD build 73 ~1900 kbps avg, 0.266 bit/pixel
Аудио: 48.0 kHz, AC3 Dolby Digital, 2/0 (L,R) ch, ~ 192 kbps

Внимание! Раздача ведётся путём добавления новых серий

Раздача ведётся путём добавления новых серий, при каждом добавлении создаётся новый торрент. Чтобы начать докачку новой серии, пользователям необходимо сделать следующее:
- Остановить скачивание.
- Удалить старый торрент у себя из клиента (старые серии удалять не надо).
- Скачать новый торрент и запустить его у себя в клиенте вместо старого, при этом указать клиенту путь в старую папку куда и должно происходить скачивание новых серий.
Ваш клиент при этом должен произвести хеширование (проверку) старой папки (если не производит сам - помогите ему сделать это), и будет докачивать только те серии которых у вас ещё нет. Старые серии при этом не удаляются, а продолжают раздаваться!
Если вы уже удалили старые серии, то предотвратить повторную закачку старых серий можно, отжав галочку в соответствующих местах при запуске нового торрента. По возможности, желательно не удалять старые серии как можно дольше, чтобы релизер не столько продолжал раздавать старые серии, а смог сконцентрироваться на новых.

MI

General
Complete name : D:\В чужом краю.2018.HDTVRip.by.Nicodem.Files-x\01.В чужом краю.2018.HDTVRip.by.Nicodem.Files-x.avi
Format : AVI
Format/Info : Audio Video Interleave
File size : 598 MiB
Duration : 39 min 32 s
Overall bit rate : 2 115 kb/s
Writing application : VirtualDubMod 1.5.10.3 | www.virtualdub-fr.org || (build 2550/release)
Writing library : VirtualDubMod build 2550/release
Video
ID : 0
Format : MPEG-4 Visual
Format profile : Advanced Simple@L5
Format settings : BVOP1 / Custom Matrix
Format settings, BVOP : 1
Format settings, QPel : No
Format settings, GMC : No warppoints
Format settings, Matrix : Custom
Codec ID : XVID
Codec ID/Hint : XviD
Duration : 39 min 32 s
Bit rate : 1 913 kb/s
Width : 720 pixels
Height : 400 pixels
Display aspect ratio : 16:9
Frame rate : 25.000 FPS
Color space : YUV
Chroma subsampling : 4:2:0
Bit depth : 8 bits
Scan type : Progressive
Compression mode : Lossy
Bits/(Pixel*Frame) : 0.266
Stream size : 541 MiB (90%)
Writing library : XviD 73
Audio
ID : 1
Format : AC-3
Format/Info : Audio Coding 3
Codec ID : 2000
Duration : 39 min 32 s
Bit rate mode : Constant
Bit rate : 192 kb/s
Channel(s) : 2 channels
Channel positions : Front: L R
Sampling rate : 48.0 kHz
Frame rate : 31.250 FPS (1536 SPF)
Bit depth : 16 bits
Compression mode : Lossy
Stream size : 54.3 MiB (9%)
Alignment : Split accross interleaves
Interleave, duration : 40 ms (1.00 video frame)
Interleave, preload duratio : 500 ms
Service kind : Complete Main

Скриншоты


Download

Download free and at maximum speed!

How to Download? · What is a torrent? · Ratings and Limitations




You cannot post new topics in this forum
You cannot reply to topics in this forum
You cannot edit your posts in this forum
You cannot delete your posts in this forum
You cannot vote in polls in this forum
You cannot attach files in this forum
You cannot download files in this forum