Ворона / Серии: 1-12 из 12 (Ольга Ангелова, Евгений Сосницкий) [2018, детектив, WEBRip 1080p]


by Boris G ®
23-Дек-2018 15:24

[Цитировать]

Ворона / Серии: 1-12 из 12 (Ольга Ангелова, Евгений Сосницкий) [2018, детектив, WEBRip 1080p]

Ворона
Год выпуска: 2018
Производство: Мармот-фильм
Жанр: детектив
Продолжительность: ~00:48:00 серия
Субтитры: нет
Режиссёр: Ольга Ангелова, Евгений Сосницкий
В ролях: Елизавета Боярская, Анатолий Белый, Светлана Бакулина, Игорь Черневич, Владимир Селезнев, Елизавета Толубеева, Сергей Колос, Василий Щипицын, Ирина Патракова, Виталий Коваленко, Глафира Снятовская, Владимир Колганов
Описание: Анна Воронцова, которую коллеги за глаза зовут Вороной - неуживчивый старший следователь районного ОВД. У нее все идет наперекосяк: выскочка-карьерист становится замначальника в обход нее, мать не одобряет ее работу, а попытки заниматься расследованием реальных дел пресекаются указанием сверху: нужно переключиться на поиски какого-то бабника-фотографа Краснова, которого уже три недели не может найти жена.

Реклама: Нет.
Кинопоиск
Все раздачи сериала
Sample
Качество: WEBRip 1080p - Nikolspup
Формат: MKV
Видео кодек: H.264
Аудио кодек: AC3
Видео: MPEG4 AVC Video, H264, 16:9, 1920x1080, 25 fps, ~6000 kbps, 0.116 bit/pixel
Аудио: AC3 Dolby Digital, 48.0 kHz, 2/0 (L,R) ch, 192 kbps

Внимание! Раздача ведётся путём добавления новых серий

Раздача ведётся путём добавления новых серий, при каждом добавлении создаётся новый торрент. Чтобы начать докачку новой серии, пользователям необходимо сделать следующее:
- Остановить скачивание.
- Удалить старый торрент у себя из клиента (старые серии удалять не надо).
- Скачать новый торрент и запустить его у себя в клиенте вместо старого, при этом указать клиенту путь в старую папку куда и должно происходить скачивание новых серий.
Ваш клиент при этом должен произвести хеширование (проверку) старой папки (если не производит сам - помогите ему сделать это), и будет докачивать только те серии которых у вас ещё нет. Старые серии при этом не удаляются, а продолжают раздаваться!
Если вы уже удалили старые серии, то предотвратить повторную закачку старых серий можно, отжав галочку в соответствующих местах при запуске нового торрента. По возможности, желательно не удалять старые серии как можно дольше, чтобы релизер не столько продолжал раздавать старые серии, а смог сконцентрироваться на новых.

MI

General
Unique ID : 248854055283067344520954230458119562418 (0xBB378C3518A8A8AAA0B70810473324B2)
Complete name : D:\Vorona.2018.WEB-DL.(1080p).Nikolspup\Vorona.(01.seriya.iz.12).2018.WEB-DL.(1080p).Nikolspup.mkv
Format : Matroska
Format version : Version 4 / Version 2
File size : 2.07 GiB
Duration : 48 min 20 s
Overall bit rate mode : Constant
Overall bit rate : 6 137 kb/s
Encoded date : UTC 2018-10-29 19:09:37
Writing application : mkvmerge v7.8.0 ('River Man') 32bit built on Mar 27 2015 16:18:02
Writing library : libebml v1.3.1 + libmatroska v1.4.2
Video
ID : 1
Format : AVC
Format/Info : Advanced Video Codec
Format profile : High@L4.1
Format settings : 2 Ref Frames
Format settings, CABAC : No
Format settings, ReFrames : 2 frames
Codec ID : V_MPEG4/ISO/AVC
Duration : 48 min 20 s
Bit rate mode : Constant
Bit rate : 6 000 kb/s
Width : 1 920 pixels
Height : 1 080 pixels
Display aspect ratio : 16:9
Frame rate mode : Constant
Frame rate : 25.000 FPS
Standard : PAL
Color space : YUV
Chroma subsampling : 4:2:0
Bit depth : 8 bits
Scan type : Progressive
Bits/(Pixel*Frame) : 0.116
Stream size : 2.01 GiB (97%)
Default : Yes
Forced : No
Color range : Limited
Color primaries : BT.709
Transfer characteristics : BT.709
Matrix coefficients : BT.709
Audio
ID : 2
Format : AC-3
Format/Info : Audio Coding 3
Codec ID : A_AC3
Duration : 48 min 20 s
Bit rate mode : Constant
Bit rate : 192 kb/s
Channel(s) : 2 channels
Channel positions : Front: L R
Sampling rate : 48.0 kHz
Frame rate : 31.250 FPS (1536 SPF)
Bit depth : 16 bits
Compression mode : Lossy
Stream size : 66.4 MiB (3%)
Language : Russian
Service kind : Complete Main
Default : Yes
Forced : No

Скриншоты


Скачать

Скачать бесплатно и на максимальной скорости!

Как скачивать? · Что такое торрент? · Рейтинг и ограничения




Вы не можете начинать темы
Вы не можете отвечать на сообщения
Вы не можете редактировать свои сообщения
Вы не можете удалять свои сообщения
Вы не можете голосовать в опросах
Вы не можете прикреплять файлы к сообщениям
Вы не можете скачивать файлы