Обычная женщина / Серии: 1-9 из 9 (Борис Хлебников) [2018, драма, криминал, WEBRip 720p]


by Boris G ®
23-Dec-2018 15:24

[Quote]

Обычная женщина / Серии: 1-9 из 9 (Борис Хлебников) [2018, драма, криминал, WEBRip 720p]

Обычная женщина
Год выпуска: 2018
Производство: 1-2-3 Production, Look Film
Жанр: драма, криминал
Продолжительность: ~00:42:00 серия
Субтитры: нет
Режиссёр: Борис Хлебников
В ролях: Анна Михалкова, Евгений Гришковец, Татьяна Догилева, Аглая Тарасова, Александра Бортич, Александр Сударев, Стася Милославская, Анастасия Шаповал, Сергей Маркелов, Юлия Мельникова, Мария Андреева, Елизавета Кононова, Тамара Акулова, Николай Шрайбер, Валентина Лукащук, Семён Шомин, Сергей Уманов
Описание: У 39-летней Марины обычный маленький бизнес — цветочный магазинчик, обычная семья — муж работает хирургом, дочери учатся: младшая — в частной школе, старшая — в институте, и вполне обычные заботы. Окружающим её жизнь кажется счастливой, но за этим благополучным фасадом скрываются невероятные семейные тайны. Это история самой обычной женщины, живущей очень необычной жизнью.

Реклама: Нет.
Кинопоиск
Все раздачи сериала
Sample
Качество: WEBRip 720p - 25Kuzmich
Формат: MKV
Видео кодек: H.264
Аудио кодек: AC3
Видео: MPEG4 AVC Video, H264, 16:9, 1280x720, 25 fps, ~2600 kbps, 0.113 bit/pixel
Аудио: AC3 Dolby Digital, 48.0 kHz, 2/0 (L,R) ch, 192 kbps

Внимание! Раздача ведётся путём добавления новых серий

Раздача ведётся путём добавления новых серий, при каждом добавлении создаётся новый торрент. Чтобы начать докачку новой серии, пользователям необходимо сделать следующее:
- Остановить скачивание.
- Удалить старый торрент у себя из клиента (старые серии удалять не надо).
- Скачать новый торрент и запустить его у себя в клиенте вместо старого, при этом указать клиенту путь в старую папку куда и должно происходить скачивание новых серий.
Ваш клиент при этом должен произвести хеширование (проверку) старой папки (если не производит сам - помогите ему сделать это), и будет докачивать только те серии которых у вас ещё нет. Старые серии при этом не удаляются, а продолжают раздаваться!
Если вы уже удалили старые серии, то предотвратить повторную закачку старых серий можно, отжав галочку в соответствующих местах при запуске нового торрента. По возможности, желательно не удалять старые серии как можно дольше, чтобы релизер не столько продолжал раздавать старые серии, а смог сконцентрироваться на новых.

MI

General
Unique ID : 208871188493048983028417761806810429605 (0x9D2320AD447729CA9444847C7EF938A5)
Complete name : D:\Obychnaya.zhenschina.2018.WEB-DL.720.25Kuzmich\01.Obychnaya.zhenschina.WEB-DL.720.25Kuzmich.mkv
Format : Matroska
Format version : Version 2
File size : 828 MiB
Duration : 42 min 6 s
Overall bit rate mode : Constant
Overall bit rate : 2 749 kb/s
Encoded date : UTC 2018-10-29 20:13:28
Writing application : mkvmerge v4.0.0 ('The Stars were mine') сборка от Jun 6 2010 16:18:42
Writing library : libebml v1.0.0 + libmatroska v1.0.0
Video
ID : 1
Format : AVC
Format/Info : Advanced Video Codec
Format profile : Baseline@L4
Format settings : 4 Ref Frames
Format settings, CABAC : No
Format settings, ReFrames : 4 frames
Format settings, GOP : M=1, N=50
Codec ID : V_MPEG4/ISO/AVC
Duration : 42 min 6 s
Bit rate mode : Constant
Bit rate : 2 600 kb/s
Width : 1 280 pixels
Height : 720 pixels
Display aspect ratio : 16:9
Frame rate mode : Constant
Frame rate : 25.000 FPS
Standard : PAL
Color space : YUV
Chroma subsampling : 4:2:0
Bit depth : 8 bits
Scan type : Progressive
Bits/(Pixel*Frame) : 0.113
Stream size : 754 MiB (91%)
Language : Russian
Default : Yes
Forced : No
Color range : Limited
Color primaries : BT.709
Transfer characteristics : BT.709
Matrix coefficients : BT.709
Audio
ID : 2
Format : AC-3
Format/Info : Audio Coding 3
Codec ID : A_AC3
Duration : 42 min 6 s
Bit rate mode : Constant
Bit rate : 192 kb/s
Channel(s) : 2 channels
Channel positions : Front: L R
Sampling rate : 48.0 kHz
Frame rate : 31.250 FPS (1536 SPF)
Bit depth : 16 bits
Compression mode : Lossy
Stream size : 57.8 MiB (7%)
Language : Russian
Service kind : Complete Main
Default : Yes
Forced : No

Скриншоты


Download

Download free and at maximum speed!

How to Download? · What is a torrent? · Ratings and Limitations




You cannot post new topics in this forum
You cannot reply to topics in this forum
You cannot edit your posts in this forum
You cannot delete your posts in this forum
You cannot vote in polls in this forum
You cannot attach files in this forum
You cannot download files in this forum