Детектив-медиум Якумо / Shinrei Tantei Yakumo (Курокава Томоюки) [TV] [13 из 13] [Без хардсаба] [RUS(int), JAP+SUB] [2010, ужасы, детектив, мистика, сёдзё, BDRip] [1080p]


by lev99 ®
23-Дек-2017 14:00

[Цитировать]

Детектив-медиум Якумо / Shinrei Tantei Yakumo (Курокава Томоюки) [TV] [13 из 13] [Без хардсаба] [RUS(int), JAP+SUB] [2010, ужасы, детектив, мистика, сёдзё, BDRip] [1080p]

Детектив-медиум Якумо / Shinrei Tantei Yakumo / Psychic Detective Yakumo / Dokkoida : Ultra Diaper Man
Детектив - Экстрасенс Якумо / Мистический детектив Якумо

Страна: Япония
Год выпуска: 2010 г.
Жанр: ужасы, детектив, мистика, сёдзё
Режиссер: Курокава Томоюки
Студия: Bee Train
Продолжительность: ТВ (13 эп.), 25 мин.
Перевод: Dreamers Team & Hige-san
Описание: Зачем четверо студентов полезли в заброшенную школу? Сейчас вспоминать уже поздно, ибо один из четверки мертв, а другая явно одержима злыми духами. Харука Одзава, подруга пострадавшей и также участница неудачного похода, обращается за помощью к нелюдимому парню по имени Якумо Сайто, который, как поговаривают в кампусе, «что-то такое может». Как выясняется после ряда опасных приключений, кроваво-красный левый глаз ее нового знакомого и правда может видеть духов умерших, а сам хозяин умеет вступать с ними в контакт. В итоге прямая, открытая Харука и мрачноватый ироничный Якумо формируют странную пару, которая обречена на расследование сверхъестественных происшествий!
В лесу или каменных джунглях, за тысячи лет природа человека не меняется, и темная сторона периодически берет верх. Иногда только духи могут указать следы и вывести на верный путь, по которому в поисках истины следуют главные герои, часто в компании офицера полиции Кадзутоси Гото и его трусоватого помощника Ютаро Исии. Разоблачая маньяков и шарлатанов, черных магов и обычных убийц, Харука и Якумо не только освобождаются от тяжкого прошлого, но и лучше узнают друг друга! © Hollow, World Art
- world-art - | - kinopoisk -
Возраст: 14+
Рейтинг MPAA: PG-13
Доп. информация:
Субтитры и озвучка Persona99, взята у dronlit [HDTVRip & Raws-4U],
озвучка Sad_kit & Milirina, взята у bubuzavr [HDTVRip & Raws-4U],
видео взято [Beatrice-Raws]
Сохранены оригинальные главы.
Качество: BDRip
Тип релиза: Без хардсаба
Формат видео: MKV
Наличие линковки: Нет
Автор рипа: Vladdrako [Beatrice-Raws]
Видео: x264@L5, 1920x1080 (16:9), 23.976 fps, ~9218 Mbps, 0.185 bit/pixel, 10 bit
Аудио: AC3, 192 Kbps, 48.0Hz, 2 ch Язык Русский (в составе контейнера) ; Озвучка: Двухголосая (муж., жен.) Sad_kit & Milirina [Anything-group]
Аудио 2: AC3, 192 Kbps, 48.0Hz, 2 ch Язык Русский (в составе контейнера) ; Озвучка: Одноголосная (жен.) Persona99 [GSGroup]
Аудио 3: AC3, 192 Kbps, 48.0Hz, 2 ch Язык Японский ; Озвучка 2: Оригинальная
Субтитры: ASS, (Forced, Full) встроенные Язык субтитров русский ; Перевод: Dreamers Team & Hige-san

Подробные тех. данные

Общее
Уникальный идентификатор : 184451015586525773057267181771129833057 (0x8AC3F931FE0A71B65AEF12773A0B4661)
Полное имя : [lev99] Shinrei Tantei Yakumo ver1 [BDRip 1080p High 10@L5 AC3]\[lev99] Shinrei Tantei Yakumo 01 [BDRip 1920x1080 x264 AC3].mkv
Формат : Matroska
Версия формата : Version 4 / Version 2
Размер файла : 1,68 Гбайт
Продолжительность : 24 м. 30 с.
Общий поток : 9793 Кбит/сек
Название фильма : Shinrei Tantei Yakumo 01
Дата кодирования : UTC 2018-04-27 15:00:48
Программа кодирования : mkvmerge v22.0.0 ('At The End Of The World') 64-bit
Библиотека кодирования : libebml v1.3.5 + libmatroska v1.4.8
Обложка : Yes
Attachments : cover.jpg
Видео
Идентификатор : 1
Формат : AVC
Формат/Информация : Advanced Video Codec
Профиль формата : High 10@L5
Настройки формата : CABAC / 4 Ref Frames
Параметр CABAC формата : Да
Параметр RefFrames формата : 4 кадра
Идентификатор кодека : V_MPEG4/ISO/AVC
Продолжительность : 24 м. 29 с.
Битрейт : 9218 Кбит/сек
Ширина : 1920 пикселей
Высота : 1080 пикселей
Соотношение сторон : 16:9
Режим частоты кадров : Постоянный
Частота кадров : 23,976 (24000/1001) кадра/сек
Цветовое пространство : YUV
Субдискретизация насыщенности : 4:2:0
Битовая глубина : 10 бит
Тип развёртки : Прогрессивная
Бит/(Пиксели*Кадры) : 0.185
Размер потока : 1,58 Гбайт (94%)
Заголовок : BDRip by Vladdrako
Библиотека кодирования : x264 core 148 r2597M e86f3a1 (DJATOM's build)
Настройки программы : cabac=1 / ref=4 / deblock=1:1:-1 / analyse=0x3:0x113 / me=umh / subme=9 / psy=1 / fade_compensate=0.00 / psy_rd=1.00:0.00 / mixed_ref=1 / me_range=32 / chroma_me=1 / trellis=2 / 8x8dct=1 / cqm=0 / deadzone=21,11 / fast_pskip=1 / chroma_qp_offset=-2 / threads=34 / lookahead_threads=5 / sliced_threads=0 / nr=0 / decimate=1 / interlaced=0 / bluray_compat=0 / constrained_intra=0 / bframes=9 / b_pyramid=2 / b_adapt=2 / b_bias=0 / direct=1 / weightb=1 / open_gop=0 / weightp=2 / keyint=250 / keyint_min=23 / scenecut=40 / intra_refresh=0 / rc=crf / mbtree=0 / crf=15.5000 / qcomp=0.72 / qpmin=0 / qpmax=81 / qpstep=4 / ip_ratio=1.40 / pb_ratio=1.30 / aq=1:0.85
Язык : Japanese
Default : Да
Forced : Нет
Цветовой диапазон : Limited
Основные цвета : BT.709
Характеристики трансфера : BT.709
Коэффициенты матрицы : BT.709
Аудио #1
Идентификатор : 2
Формат : AC-3
Формат/Информация : Audio Coding 3
Идентификатор кодека : A_AC3
Продолжительность : 24 м. 30 с.
Вид битрейта : Постоянный
Битрейт : 192 Кбит/сек
Каналы : 2 канала
Расположение каналов : Front: L R
Частота : 48,0 КГц
Частота кадров : 31,250 кадров/сек (1536 SPF)
Битовая глубина : 16 бит
Метод сжатия : С потерями
Размер потока : 33,6 Мбайт (2%)
Заголовок : Milirina & sad_kit
Язык : Russian
ServiceKind/String : Complete Main
Default : Да
Forced : Нет
Аудио #2
Идентификатор : 3
Формат : AC-3
Формат/Информация : Audio Coding 3
Идентификатор кодека : A_AC3
Продолжительность : 24 м. 30 с.
Вид битрейта : Постоянный
Битрейт : 192 Кбит/сек
Каналы : 2 канала
Расположение каналов : Front: L R
Частота : 48,0 КГц
Частота кадров : 31,250 кадров/сек (1536 SPF)
Битовая глубина : 16 бит
Метод сжатия : С потерями
Размер потока : 33,6 Мбайт (2%)
Заголовок : Persona99
Язык : Russian
ServiceKind/String : Complete Main
Default : Нет
Forced : Нет
Аудио #3
Идентификатор : 4
Формат : AC-3
Формат/Информация : Audio Coding 3
Идентификатор кодека : A_AC3
Продолжительность : 24 м. 30 с.
Вид битрейта : Постоянный
Битрейт : 192 Кбит/сек
Каналы : 2 канала
Расположение каналов : Front: L R
Частота : 48,0 КГц
Частота кадров : 31,250 кадров/сек (1536 SPF)
Битовая глубина : 16 бит
Метод сжатия : С потерями
Размер потока : 33,6 Мбайт (2%)
Заголовок : Original
Язык : Japanese
ServiceKind/String : Complete Main
Default : Нет
Forced : Нет
Текст #1
Идентификатор : 5
Формат : ASS
Идентификатор кодека : S_TEXT/ASS
Идентификатор кодека/Информация : Advanced Sub Station Alpha
Продолжительность : 24 м. 21 с.
Битрейт : 29 бит/сек
ElementCount : 50
Метод сжатия : Без потерь
Размер потока : 5,30 Кбайт (0%)
Заголовок : Forced
Язык : Russian
Default : Да
Forced : Нет
Текст #2
Идентификатор : 6
Формат : ASS
Идентификатор кодека : S_TEXT/ASS
Идентификатор кодека/Информация : Advanced Sub Station Alpha
Продолжительность : 24 м. 21 с.
Битрейт : 137 бит/сек
ElementCount : 311
Метод сжатия : Без потерь
Размер потока : 24,5 Кбайт (0%)
Заголовок : Full
Язык : Russian
Default : Нет
Forced : Нет
Меню
00:00:00.000 : :OP
00:01:15.992 : :Part A
00:10:47.021 : :Part B
00:22:47.783 : :ED
00:24:17.956 : :Next

Список эпизодов

01. Закрытая комната
02. Проклятие белой лисицы
03. Тьма туннеля
04. То, что объединяет души ~Одержимость~
05. То, что объединяет души ~Оживление~
06. Дешёвое дело
07. Соединяя мысли ~Ловушка~
08. Соединяя мысли ~Связь~
09. Соединяя мысли ~Свет~
10. Границы невезения ~Заявление~
11. Границы невезения ~Кинжал убийцы~
12. Границы невезения ~Ярость~
13. Границы невезения ~Вечность~

Скриншоты



Последний раз редактировалось: lev99 (2018-05-04 15:22), всего редактировалось 21 раз(а)
Скачать

Скачать бесплатно и на максимальной скорости!

Как скачивать? · Что такое торрент? · Рейтинг и ограничения


Boris G
23-Дек-2017 14:09 (спустя 8 минут)

[Цитировать]

Сейчас заценим af aa


Вы не можете начинать темы
Вы не можете отвечать на сообщения
Вы не можете редактировать свои сообщения
Вы не можете удалять свои сообщения
Вы не можете голосовать в опросах
Вы не можете прикреплять файлы к сообщениям
Вы не можете скачивать файлы