Детектив-медиум Якумо / Shinrei Tantei Yakumo (Курокава Томоюки) [TV] [13 из 13] [Без хардсаба] [RUS(int), JAP+SUB] [2010, ужасы, детектив, мистика, сёдзё, BDRip]


by lev99 ®
23-Дек-2017 11:00

[Цитировать]

Детектив-медиум Якумо / Shinrei Tantei Yakumo (Курокава Томоюки) [TV] [13 из 13] [Без хардсаба] [RUS(int), JAP+SUB] [2010, ужасы, детектив, мистика, сёдзё, BDRip]

Детектив-медиум Якумо / Shinrei Tantei Yakumo / Psychic Detective Yakumo / Dokkoida : Ultra Diaper Man
Детектив - Экстрасенс Якумо / Мистический детектив Якумо

Страна: Япония
Год выпуска: 2010 г.
Жанр: ужасы, детектив, мистика, сёдзё
Режиссер: Курокава Томоюки
Продолжительность: ТВ (13 эп.), 25 мин.
Перевод: Dreamers Team & Hige-san
Описание: Зачем четверо студентов полезли в заброшенную школу? Сейчас вспоминать уже поздно, ибо один из четверки мертв, а другая явно одержима злыми духами. Харука Одзава, подруга пострадавшей и также участница неудачного похода, обращается за помощью к нелюдимому парню по имени Якумо Сайто, который, как поговаривают в кампусе, «что-то такое может». Как выясняется после ряда опасных приключений, кроваво-красный левый глаз ее нового знакомого и правда может видеть духов умерших, а сам хозяин умеет вступать с ними в контакт. В итоге прямая, открытая Харука и мрачноватый ироничный Якумо формируют странную пару, которая обречена на расследование сверхъестественных происшествий!
В лесу или каменных джунглях, за тысячи лет природа человека не меняется, и темная сторона периодически берет верх. Иногда только духи могут указать следы и вывести на верный путь, по которому в поисках истины следуют главные герои, часто в компании офицера полиции Кадзутоси Гото и его трусоватого помощника Ютаро Исии. Разоблачая маньяков и шарлатанов, черных магов и обычных убийц, Харука и Якумо не только освобождаются от тяжкого прошлого, но и лучше узнают друг друга! © Hollow, World Art
- world-art - | - kinopoisk -
Возраст: 14+
Рейтинг MPAA: PG-13
Доп. информация: Субтитры и озвучка Persona99, взята у dronlit [HDTVRip & Raws-4U], видео взято [Beatrice-Raws] Shinrei Tantei Yakumo [BDRip 1920x1080 x264 FLAC]
Сохранены оригинальные главы. В раздаче есть OP и ED, отдельными файлами.
Формат видео: MKV
Качество видео: BDRip
Тип релиза: Без хардсаба
Релиз/Автор рипа: GSGroup / lev99
Видео: x264, 1920x1080(16:9), ~2918 kbps, 23.976 fps, 8 bit
Аудио: AAC (LC), 192 Kbps, 48.0Hz, 2 ch Язык Русский (в составе контейнера) ; Озвучка: Одноголосная (жен.) Persona99
Аудио 2: AAC (LC), 192 Kbps, 48.0Hz, 2 ch Язык Японский ; Озвучка 2: Оригинальная
Субтитры: ASS, встроенные Язык субтитров русский ; Перевод: Dreamers Team & Hige-san

Подробные тех. данные

Общее
Уникальный идентификатор : 54436905295733490485299892241126226961 (0x28F42AA6396FFC1C99EE63995AED7C11)
Полное имя : \Shinrei Tantei Yakumo [BDRip 1080p lev99]\[Beatrice-Raws] Shinrei Tantei Yakumo 01 [BDRip 1080] [lev99].mkv
Формат : Matroska
Версия формата : Version 4 / Version 2
Размер файла : 579 Мбайт
Продолжительность : 24 м. 30 с.
Общий поток : 3304 Кбит/сек
Название фильма : Shinrei Tantei Yakumo - 01
Дата кодирования : UTC 2017-12-23 09:57:12
Программа кодирования : mkvmerge v19.0.0 ('Brave Captain') 64-bit
Библиотека кодирования : libebml v1.3.5 + libmatroska v1.4.8
Обложка : Yes
Attachments : cover.jpg
Видео
Идентификатор : 1
Формат : AVC
Формат/Информация : Advanced Video Codec
Профиль формата : High@L4.1
Настройки формата : CABAC / 4 Ref Frames
Параметр CABAC формата : Да
Параметр RefFrames формата : 4 кадра
Идентификатор кодека : V_MPEG4/ISO/AVC
Продолжительность : 24 м. 29 с.
Битрейт : 2918 Кбит/сек
Ширина : 1920 пикселей
Высота : 1080 пикселей
Соотношение сторон : 16:9
Режим частоты кадров : Постоянный
Частота кадров : 23,976 (24000/1001) кадра/сек
Цветовое пространство : YUV
Субдискретизация насыщенности : 4:2:0
Битовая глубина : 8 бит
Тип развёртки : Прогрессивная
Бит/(Пиксели*Кадры) : 0.059
Размер потока : 511 Мбайт (88%)
Библиотека кодирования : x264 core 152 r2851 ba24899
Настройки программы : cabac=1 / ref=4 / deblock=1:-1:-1 / analyse=0x3:0x133 / me=umh / subme=10 / psy=1 / psy_rd=0.40:0.00 / mixed_ref=1 / me_range=24 / chroma_me=1 / trellis=2 / 8x8dct=1 / cqm=0 / deadzone=21,11 / fast_pskip=1 / chroma_qp_offset=-2 / threads=2 / lookahead_threads=1 / sliced_threads=0 / nr=0 / decimate=1 / interlaced=0 / bluray_compat=0 / constrained_intra=0 / bframes=3 / b_pyramid=2 / b_adapt=2 / b_bias=0 / direct=1 / weightb=1 / open_gop=0 / weightp=2 / keyint=240 / keyint_min=23 / scenecut=40 / intra_refresh=0 / rc_lookahead=60 / rc=crf / mbtree=1 / crf=18.0 / qcomp=0.60 / qpmin=10 / qpmax=69 / qpstep=4 / vbv_maxrate=62500 / vbv_bufsize=50000 / crf_max=0.0 / nal_hrd=none / filler=0 / ip_ratio=1.40 / aq=1:0.60
Default : Да
Forced : Нет
Цветовой диапазон : Limited
Основные цвета : BT.709
Характеристики трансфера : BT.709
Коэффициенты матрицы : BT.709
Аудио #1
Идентификатор : 2
Формат : AAC
Формат/Информация : Advanced Audio Codec
Профиль формата : LC
Идентификатор кодека : A_AAC-2
Продолжительность : 24 м. 30 с.
Битрейт : 192 Кбит/сек
Каналы : 2 канала
Расположение каналов : Front: L R
Частота : 48,0 КГц
Частота кадров : 46,875 кадров/сек (1024 SPF)
Метод сжатия : С потерями
Задержка видео : 21 мс.
Размер потока : 33,6 Мбайт (6%)
Заголовок : Persona99
Язык : Russian
Default : Да
Forced : Нет
Аудио #2
Идентификатор : 3
Формат : AAC
Формат/Информация : Advanced Audio Codec
Профиль формата : LC
Идентификатор кодека : A_AAC-2
Продолжительность : 24 м. 29 с.
Битрейт : 192 Кбит/сек
Каналы : 2 канала
Расположение каналов : Front: L R
Частота : 48,0 КГц
Частота кадров : 46,875 кадров/сек (1024 SPF)
Метод сжатия : С потерями
Задержка видео : 21 мс.
Размер потока : 33,6 Мбайт (6%)
Язык : Japanese
Default : Нет
Forced : Нет
Текст
Идентификатор : 4
Формат : ASS
Идентификатор кодека : S_TEXT/ASS
Идентификатор кодека/Информация : Advanced Sub Station Alpha
Продолжительность : 24 м. 21 с.
Битрейт : 152 бит/сек
ElementCount : 311
Метод сжатия : Без потерь
Размер потока : 27,3 Кбайт (0%)
Язык : Russian
Default : Нет
Forced : Нет
Меню
00:00:00.000 : en:OP
00:01:15.992 : en:Part A
00:10:47.021 : en:Part B
00:22:47.783 : en:ED
00:24:17.956 : en:Next

Список эпизодов

01. Закрытая комната
02. Проклятие белой лисицы
03. Тьма туннеля
04. То, что объединяет души ~Одержимость~
05. То, что объединяет души ~Оживление~
06. Дешёвое дело
07. Соединяя мысли ~Ловушка~
08. Соединяя мысли ~Связь~
09. Соединяя мысли ~Свет~
10. Границы невезения ~Заявление~
11. Границы невезения ~Кинжал убийцы~
12. Границы невезения ~Ярость~
13. Границы невезения ~Вечность~

Скриншоты



Последний раз редактировалось: lev99 (2018-03-22 21:27), всего редактировалось 15 раз(а)

Boris G
23-Дек-2017 11:09 (спустя 8 минут)

[Цитировать]

Сейчас заценим af aa


Вы не можете начинать темы
Вы не можете отвечать на сообщения
Вы не можете редактировать свои сообщения
Вы не можете удалять свои сообщения
Вы не можете голосовать в опросах
Вы не можете прикреплять файлы к сообщениям
Вы не можете скачивать файлы