Лучше всех / Серии: 1-4 из 4 (Максим Бернадский) [2018, мелодрама, WEBRip]


by Boris G ®
23-Dec-2018 15:24

[Quote]

Лучше всех / Серии: 1-4 из 4 (Максим Бернадский) [2018, мелодрама, WEBRip]

Лучше всех
Год выпуска: 2018
Производство: FILM.UA
Жанр: мелодрама
Продолжительность: ~00:46:00 серия
Субтитры: нет
Режиссёр: Максим Бернадский
В ролях: Александра Эпштейн, Дмитрий Пчела, Наталья Калатай, Дмитрий Сова, Игорь Пазыч, Дарина Панасенко, Яков Кучеревский, Инна Мирошниченко, Алексей Нагрудный, Ольга Морозова, Юрий Высоцкий, Алексей Дзюбинский, Полина Носыхина, Екатерина Козлова, Ангелина Прийма
Описание: Маша Лаврова живет в небольшом городке с мамой Анной, старшей сестрой Надеждой, ее мужем Сергеем и их дочкой Соней. Маша - подающая большие надежды талантливая пианистка, а Сергей с Надей - молодые ученые, которых уже давно зовут работать в столицу. Но неожиданно приходит беда...

Реклама: Нет.
Кино-театр
Все раздачи сериала
Sample
Качество: WEBRip - Files-x
Формат: AVI
Видео кодек: XviD
Аудио кодек: AC3
Видео: 720x400 (1.80:1), 25 fps, XviD build 73 ~1890 kbps avg, 0.262 bit/pixel
Аудио: 48.0 kHz, AC3 Dolby Digital, 2/0 (L,R) ch, ~ 192 kbps

MI

General
Complete name : D:\Лучше всех.2018.WEBRip.by.Nicodem.Files-x\01.Лучше всех.2018.WEBRip.by.Nicodem.Files-x.avi
Format : AVI
Format/Info : Audio Video Interleave
File size : 697 MiB
Duration : 46 min 35 s
Overall bit rate : 2 092 kb/s
Writing application : VirtualDubMod 1.5.10.3 | www.virtualdub-fr.org || (build 2550/release)
Writing library : VirtualDubMod build 2550/release
Video
ID : 0
Format : MPEG-4 Visual
Format profile : Advanced Simple@L5
Format settings : BVOP1 / Custom Matrix
Format settings, BVOP : 1
Format settings, QPel : No
Format settings, GMC : No warppoints
Format settings, Matrix : Custom
Codec ID : XVID
Codec ID/Hint : XviD
Duration : 46 min 35 s
Bit rate : 1 890 kb/s
Width : 720 pixels
Height : 400 pixels
Display aspect ratio : 16:9
Frame rate : 25.000 FPS
Color space : YUV
Chroma subsampling : 4:2:0
Bit depth : 8 bits
Scan type : Progressive
Compression mode : Lossy
Bits/(Pixel*Frame) : 0.262
Stream size : 630 MiB (90%)
Writing library : XviD 73
Audio
ID : 1
Format : AC-3
Format/Info : Audio Coding 3
Codec ID : 2000
Duration : 46 min 35 s
Bit rate mode : Constant
Bit rate : 192 kb/s
Channel(s) : 2 channels
Channel positions : Front: L R
Sampling rate : 48.0 kHz
Frame rate : 31.250 FPS (1536 SPF)
Bit depth : 16 bits
Compression mode : Lossy
Stream size : 64.0 MiB (9%)
Alignment : Split accross interleaves
Interleave, duration : 40 ms (1.00 video frame)
Interleave, preload duratio : 500 ms
Service kind : Complete Main

Скриншоты


Download

Download free and at maximum speed!

How to Download? · What is a torrent? · Ratings and Limitations




You cannot post new topics in this forum
You cannot reply to topics in this forum
You cannot edit your posts in this forum
You cannot delete your posts in this forum
You cannot vote in polls in this forum
You cannot attach files in this forum
You cannot download files in this forum