Ивановы-Ивановы / Сезон: 3 / Серии: 1-21 из 21 (Андрей Элинсон) [2018, комедия, WEBRip 720p]


by Boris G ®
23-Дек-2018 15:24

[Цитировать]

Ивановы-Ивановы / Сезон: 3 / Серии: 1-21 из 21 (Андрей Элинсон) [2018, комедия, WEBRip 720p]

Ивановы-Ивановы
Год выпуска: 2018
Производство: PICK UP FILM
Жанр: комедия
Продолжительность: ~00:24:00 серия
Субтитры: нет
Режиссёр: Андрей Элинсон
В ролях: Сергей Бурунов, Александра Флоринская, Михаил Трухин, Анна Уколова, Семён Трескунов, Алексей Лукин, Юрий Ицков, Елена Муравьёва, Грант Тохатян, Виктория Маслова, Василина Юсковец, Игорь Хрипунов, Александр Обласов, Валерий Панков, Артём Федотов, Кристина Каширина, Мария Иващенко, Валерий Новиков, Игорь Климов, Гарик Айвазов, Николай Козак, Натали Старынкевич, Юлия Чиплиева, Александр Марушев, Андрей Шишков, Денис Синявский, Александр Половцев, Сергей Беляев, Юлия Подозёрова, Слава Степанян, Андрей Арзяев, Павел Ремезов, Игорь Кистол, Виталий Ходин, Игорь Кулачко
Описание: Лёша Иванов становится главой семьи, когда выкупает фамильный особняк. Это не устраивает Антона, который этот особняк построил. В борьбе за «престол» нет запрещенных средств, и пусть придётся стрелять из лука, взрывать вертолёт и оказаться в другой эпохе.

Реклама: Нет.

Все раздачи сериала
Sample
Качество: WEBRip 720p - Files-x
Формат: MKV
Видео кодек: H.264
Аудио кодек: AC3
Видео: MPEG4 AVC Video, H264, 16:9, 1280x720, 25 fps, ~3500 kbps, 0.152 bit/pixel
Аудио: AC3 Dolby Digital, 44.1 kHz, 2/0 (L,R) ch, 192 kbps

Внимание! Раздача ведётся путём добавления новых серий

Раздача ведётся путём добавления новых серий, при каждом добавлении создаётся новый торрент. Чтобы начать докачку новой серии, пользователям необходимо сделать следующее:
- Остановить скачивание.
- Удалить старый торрент у себя из клиента (старые серии удалять не надо).
- Скачать новый торрент и запустить его у себя в клиенте вместо старого, при этом указать клиенту путь в старую папку куда и должно происходить скачивание новых серий.
Ваш клиент при этом должен произвести хеширование (проверку) старой папки (если не производит сам - помогите ему сделать это), и будет докачивать только те серии которых у вас ещё нет. Старые серии при этом не удаляются, а продолжают раздаваться!
Если вы уже удалили старые серии, то предотвратить повторную закачку старых серий можно, отжав галочку в соответствующих местах при запуске нового торрента. По возможности, желательно не удалять старые серии как можно дольше, чтобы релизер не столько продолжал раздавать старые серии, а смог сконцентрироваться на новых.

MI

General
Unique ID : 204328997885745593123887461678149137956 (0x99B85563C2C5561EB573DE4EAC85F624)
Complete name : D:\Ivanovy.Ivanovy.03.2018.WEB-DL.720.Files-x\01.Ivanovy.Ivanovy.03.2018.WEB-DL.720.Files-x.mkv
Format : Matroska
Format version : Version 2
File size : 660 MiB
Duration : 24 min 48 s
Overall bit rate : 3 721 kb/s
Encoded date : UTC 2018-10-29 13:52:35
Writing application : mkvmerge v7.8.0 ('River Man') 32bit built on Apr 3 2015 12:11:22
Writing library : libebml v1.3.1 + libmatroska v1.4.2
Video
ID : 1
Format : AVC
Format/Info : Advanced Video Codec
Format profile : High@L4.1
Format settings : CABAC / 5 Ref Frames
Format settings, CABAC : Yes
Format settings, ReFrames : 5 frames
Codec ID : V_MPEG4/ISO/AVC
Duration : 24 min 48 s
Bit rate : 3 500 kb/s
Width : 1 280 pixels
Height : 720 pixels
Display aspect ratio : 16:9
Frame rate mode : Constant
Frame rate : 25.000 FPS
Color space : YUV
Chroma subsampling : 4:2:0
Bit depth : 8 bits
Scan type : Progressive
Bits/(Pixel*Frame) : 0.152
Stream size : 613 MiB (93%)
Writing library : x264 core 148
Encoding settings : cabac=1 / ref=5 / deblock=1:0:0 / analyse=0x3:0x113 / me=hex / subme=8 / psy=1 / psy_rd=1.00:0.00 / mixed_ref=1 / me_range=16 / chroma_me=1 / trellis=2 / 8x8dct=1 / cqm=0 / deadzone=21,11 / fast_pskip=1 / chroma_qp_offset=-2 / threads=22 / lookahead_threads=3 / sliced_threads=0 / nr=0 / decimate=1 / interlaced=0 / bluray_compat=0 / constrained_intra=0 / bframes=3 / b_pyramid=2 / b_adapt=1 / b_bias=0 / direct=3 / weightb=1 / open_gop=0 / weightp=2 / keyint=250 / keyint_min=25 / scenecut=0 / intra_refresh=0 / rc_lookahead=50 / rc=abr / mbtree=1 / bitrate=3500 / ratetol=1.0 / qcomp=0.60 / qpmin=0 / qpmax=69 / qpstep=4 / ip_ratio=1.40 / aq=1:1.00
Default : Yes
Forced : No
Audio
ID : 2
Format : AC-3
Format/Info : Audio Coding 3
Codec ID : A_AC3
Duration : 24 min 48 s
Bit rate mode : Constant
Bit rate : 192 kb/s
Channel(s) : 2 channels
Channel positions : Front: L R
Sampling rate : 44.1 kHz
Frame rate : 28.711 FPS (1536 SPF)
Bit depth : 16 bits
Compression mode : Lossy
Delay relative to video : -80 ms
Stream size : 34.1 MiB (5%)
Service kind : Complete Main
Default : Yes
Forced : No

Скриншоты


Скачать

Скачать бесплатно и на максимальной скорости!

Как скачивать? · Что такое торрент? · Рейтинг и ограничения




Вы не можете начинать темы
Вы не можете отвечать на сообщения
Вы не можете редактировать свои сообщения
Вы не можете удалять свои сообщения
Вы не можете голосовать в опросах
Вы не можете прикреплять файлы к сообщениям
Вы не можете скачивать файлы