Ивановы-Ивановы / Сезон: 3 / Серии: 1-21 из 21 (Андрей Элинсон) [2018, комедия, WEBRip]


by Boris G ®
23-Дек-2018 15:24

[Цитировать]

Ивановы-Ивановы / Сезон: 3 / Серии: 1-21 из 21 (Андрей Элинсон) [2018, комедия, WEBRip]

Ивановы-Ивановы
Год выпуска: 2018
Производство: PICK UP FILM
Жанр: комедия
Продолжительность: ~00:24:00 серия
Субтитры: нет
Режиссёр: Андрей Элинсон
В ролях: Сергей Бурунов, Александра Флоринская, Михаил Трухин, Анна Уколова, Семён Трескунов, Алексей Лукин, Юрий Ицков, Елена Муравьёва, Грант Тохатян, Виктория Маслова, Василина Юсковец, Игорь Хрипунов, Александр Обласов, Валерий Панков, Артём Федотов, Кристина Каширина, Мария Иващенко, Валерий Новиков, Игорь Климов, Гарик Айвазов, Николай Козак, Натали Старынкевич, Юлия Чиплиева, Александр Марушев, Андрей Шишков, Денис Синявский, Александр Половцев, Сергей Беляев, Юлия Подозёрова, Слава Степанян, Андрей Арзяев, Павел Ремезов, Игорь Кистол, Виталий Ходин, Игорь Кулачко
Описание: Лёша Иванов становится главой семьи, когда выкупает фамильный особняк. Это не устраивает Антона, который этот особняк построил. В борьбе за «престол» нет запрещенных средств, и пусть придётся стрелять из лука, взрывать вертолёт и оказаться в другой эпохе.

Реклама: Нет.

Все раздачи сериала
Sample
Качество: WEBRip - Files-x
Формат: AVI
Видео кодек: XviD
Аудио кодек: AC3
Видео: 720x400 (1.80:1), 25 fps, XviD build 73 ~1600 kbps avg, 0.222 bit/pixel
Аудио: 48.0 kHz, AC3 Dolby Digital, 2/0 (L,R) ch, ~ 192 kbps

Внимание! Раздача ведётся путём добавления новых серий

Раздача ведётся путём добавления новых серий, при каждом добавлении создаётся новый торрент. Чтобы начать докачку новой серии, пользователям необходимо сделать следующее:
- Остановить скачивание.
- Удалить старый торрент у себя из клиента (старые серии удалять не надо).
- Скачать новый торрент и запустить его у себя в клиенте вместо старого, при этом указать клиенту путь в старую папку куда и должно происходить скачивание новых серий.
Ваш клиент при этом должен произвести хеширование (проверку) старой папки (если не производит сам - помогите ему сделать это), и будет докачивать только те серии которых у вас ещё нет. Старые серии при этом не удаляются, а продолжают раздаваться!
Если вы уже удалили старые серии, то предотвратить повторную закачку старых серий можно, отжав галочку в соответствующих местах при запуске нового торрента. По возможности, желательно не удалять старые серии как можно дольше, чтобы релизер не столько продолжал раздавать старые серии, а смог сконцентрироваться на новых.

MI

General
Complete name : D:\Ivanovy.Ivanovy.03.2018.WEB-DLRip.Files-x.Files-x\01.Ivanovy.Ivanovy.03.2018.WEB-DLRip.Files-x.avi
Format : AVI
Format/Info : Audio Video Interleave
File size : 320 MiB
Duration : 24 min 48 s
Overall bit rate : 1 802 kb/s
Writing application : VirtualDubMod 1.5.10.3 | www.virtualdub-fr.org || (build 2550/release)
Writing library : VirtualDubMod build 2550/release
Video
ID : 0
Format : MPEG-4 Visual
Format profile : Advanced Simple@L5
Format settings : BVOP1 / QPel
Format settings, BVOP : 1
Format settings, QPel : Yes
Format settings, GMC : No warppoints
Format settings, Matrix : Default (MPEG)
Codec ID : XVID
Codec ID/Hint : XviD
Duration : 24 min 48 s
Bit rate : 1 600 kb/s
Width : 720 pixels
Height : 400 pixels
Display aspect ratio : 16:9
Frame rate : 25.000 FPS
Color space : YUV
Chroma subsampling : 4:2:0
Bit depth : 8 bits
Scan type : Progressive
Compression mode : Lossy
Bits/(Pixel*Frame) : 0.222
Stream size : 284 MiB (89%)
Writing library : XviD 73
Audio
ID : 1
Format : AC-3
Format/Info : Audio Coding 3
Codec ID : 2000
Duration : 24 min 48 s
Bit rate mode : Constant
Bit rate : 192 kb/s
Channel(s) : 2 channels
Channel positions : Front: L R
Sampling rate : 48.0 kHz
Frame rate : 31.250 FPS (1536 SPF)
Bit depth : 16 bits
Compression mode : Lossy
Stream size : 34.1 MiB (11%)
Alignment : Split accross interleaves
Interleave, duration : 40 ms (1.00 video frame)
Interleave, preload duratio : 500 ms
Service kind : Complete Main

Скриншоты


Скачать

Скачать бесплатно и на максимальной скорости!

Как скачивать? · Что такое торрент? · Рейтинг и ограничения




Вы не можете начинать темы
Вы не можете отвечать на сообщения
Вы не можете редактировать свои сообщения
Вы не можете удалять свои сообщения
Вы не можете голосовать в опросах
Вы не можете прикреплять файлы к сообщениям
Вы не можете скачивать файлы