Гражданская жена / Серии: 1-4 из 4 (Андрей Красавин) [2018, мелодрама, драма, WEBRip]


by Boris G ®
23-Дек-2018 15:24

[Цитировать]

Гражданская жена / Серии: 1-4 из 4 (Андрей Красавин) [2018, мелодрама, драма, WEBRip]

Гражданская жена
Год выпуска: 2018
Производство: Кинокомпания «Русское»
Жанр: мелодрама
Продолжительность: ~00:44:00 серия
Субтитры: нет
Режиссёр: Андрей Красавин
В ролях: Пелагея Невзорова, Денис Васильев, Евгений Славский, Артём Крылов, Елена Симонова, Елена Ветрова, Александра Живова, Ася Калинина, Ольга Рептух, Анастасия Бакланова (младшая), Кирилл Ильин, Андрей Семёнов, Валентина Попова, Ксения Ильина, Павел Малухин, Сергей Ганночка
Описание: Жизнь с детства не баловала Аню. Девочка рано потеряла родителей и прошла все тяготы жизни в детдоме. Но, словно оправдывая свою фамилию Неунывалова, она никогда не опускала руки. Казалось, все наконец пошло на лад. После стольких бед судьба свела ее с Павлом. Он был совсем не похож на знакомых парней - настоящий принц из мечты, успешный и красивый мужчина. Анна и Павел были счастливы и готовились к свадьбе. Но на пути влюбленных появляются препятствия - мать Павла всеми силами пытается избавиться от девицы "без роду без племени", а брат, который с детства завидовал Павлу, объявляет паре настоящую войну - и в один момент Аня Неунывалова остается одна, с ребенком под сердцем, без средств к существованию и крыши над головой...

Реклама: Нет.
Кинопоиск
Все раздачи сериала
Sample
Качество: WEBRip - Files-x
Формат: AVI
Видео кодек: XviD
Аудио кодек: AC3
Видео: 720x400 (1.80:1), 25 fps, XviD build 73 ~2000 kbps avg, 0.277 bit/pixel
Аудио: 48.0 kHz, AC3 Dolby Digital, 2/0 (L,R) ch, ~ 192 kbps

MI

General
Complete name : D:\Гражданская жена.2018.WEB-DLRip.by.Nicodem.Files-x\01.Гражданская жена.2018.WEB-DLRip.by.Nicodem.Files-x.avi
Format : AVI
Format/Info : Audio Video Interleave
File size : 1.38 GiB
Duration : 1 h 29 min
Overall bit rate : 2 196 kb/s
Writing application : VirtualDubMod 1.5.10.3 | www.virtualdub-fr.org || (build 2550/release)
Writing library : VirtualDubMod build 2550/release
Video
ID : 0
Format : MPEG-4 Visual
Format profile : Advanced Simple@L5
Format settings : BVOP1 / Custom Matrix
Format settings, BVOP : 1
Format settings, QPel : No
Format settings, GMC : No warppoints
Format settings, Matrix : Custom
Codec ID : XVID
Codec ID/Hint : XviD
Duration : 1 h 29 min
Bit rate : 1 995 kb/s
Width : 720 pixels
Height : 400 pixels
Display aspect ratio : 16:9
Frame rate : 25.000 FPS
Color space : YUV
Chroma subsampling : 4:2:0
Bit depth : 8 bits
Scan type : Progressive
Compression mode : Lossy
Bits/(Pixel*Frame) : 0.277
Stream size : 1.25 GiB (91%)
Writing library : XviD 73
Audio
ID : 1
Format : AC-3
Format/Info : Audio Coding 3
Codec ID : 2000
Duration : 1 h 29 min
Bit rate mode : Constant
Bit rate : 192 kb/s
Channel(s) : 2 channels
Channel positions : Front: L R
Sampling rate : 48.0 kHz
Frame rate : 31.250 FPS (1536 SPF)
Bit depth : 16 bits
Compression mode : Lossy
Stream size : 123 MiB (9%)
Alignment : Split accross interleaves
Interleave, duration : 40 ms (1.00 video frame)
Interleave, preload duratio : 500 ms
Service kind : Complete Main

Скриншоты


Скачать

Скачать бесплатно и на максимальной скорости!

Как скачивать? · Что такое торрент? · Рейтинг и ограничения




Вы не можете начинать темы
Вы не можете отвечать на сообщения
Вы не можете редактировать свои сообщения
Вы не можете удалять свои сообщения
Вы не можете голосовать в опросах
Вы не можете прикреплять файлы к сообщениям
Вы не можете скачивать файлы