Одна ложь на двоих / Серии: 1-4 из 4 (Алексей Праздников) [2018, драма, WEBRip 1080p]


by Boris G ®
23-Dec-2018 15:24

[Quote]

Одна ложь на двоих / Серии: 1-4 из 4 (Алексей Праздников) [2018, драма, WEBRip 1080p]

Одна ложь на двоих
Год выпуска: 2018
Производство: ТелеМастер
Жанр: драма
Продолжительность: ~00:46:00 серия
Субтитры: нет
Режиссёр: Алексей Праздников
В ролях: Анатолий Руденко, Антонина Паперная, Линда Лазарева, Екатерина Решетникова, Борис Хвошнянский, Клим Бердинский, Лев Бердинский

Описание: Красивая и целеустремленная девушка из Ульяновска Варя несколько лет назад переехала в Москву, оставив позади большую любовь и романтические мечты. Она уже не стремится к личному счастью, зато преуспевает на работе, построив карьеру в event-агентстве. Ее направляют в командировку в родной город, чтобы организовать свадьбу для богатого клиента. Вернувшись в Ульяновск, Варя встречается со своим бывшим возлюбленным Владом, который успел жениться, но не нашел счастья в браке. Когда старые чувства вспыхивают с новой силой, Влад решается на развод. Его останавливает беременность жены, готовой пойти на большой обман, лишь бы удержать мужа.

Реклама: Нет.
Кинопоиск
Все раздачи сериала
Sample
Качество: WEBRip 1080p - Getty
Формат: MKV
Видео кодек: H.264
Аудио кодек: AC3
Видео: MPEG4 AVC Video, H264, 16:9, 1920x1080, 25 fps, ~4920 kbps, 0.091 bit/pixel
Аудио: AC3 Dolby Digital, 48.0 kHz, 2/0 (L,R) ch, 192 kbps

MI

General
Unique ID : 243556225755405415602066040451953019486 (0xB73B390B8BC3BF4988DC2E06A2FF4A5E)
Complete name : D:\Odna.lozh.na.dvoih.2018.WEB-DL.(1080p).Getty\Odna.lozh.na.dvoih.e01.2018.WEB-DL.(1080p).Getty.mkv
Format : Matroska
Format version : Version 4 / Version 2
File size : 1.67 GiB
Duration : 46 min 41 s
Overall bit rate : 5 121 kb/s
Movie name : Odna.lozh.na.dvoih.e01.2018.WEB-DL.(1080p).Getty
Encoded date : UTC 2018-10-27 16:47:45
Writing application : mkvmerge v7.8.0 ('River Man') 32bit built on Mar 27 2015 16:18:02
Writing library : libebml v1.3.1 + libmatroska v1.4.2
Video
ID : 1
Format : AVC
Format/Info : Advanced Video Codec
Format profile : High@L4
Format settings : CABAC / 1 Ref Frames
Format settings, CABAC : Yes
Format settings, ReFrames : 1 frame
Format settings, GOP : M=1, N=50
Codec ID : V_MPEG4/ISO/AVC
Duration : 46 min 41 s
Bit rate : 4 927 kb/s
Width : 1 920 pixels
Height : 1 080 pixels
Display aspect ratio : 16:9
Frame rate mode : Constant
Frame rate : 25.000 FPS
Color space : YUV
Chroma subsampling : 4:2:0
Bit depth : 8 bits
Scan type : Progressive
Bits/(Pixel*Frame) : 0.095
Stream size : 1.61 GiB (96%)
Default : Yes
Forced : No
Audio
ID : 2
Format : AC-3
Format/Info : Audio Coding 3
Codec ID : A_AC3
Duration : 46 min 41 s
Bit rate mode : Constant
Bit rate : 192 kb/s
Channel(s) : 2 channels
Channel positions : Front: L R
Sampling rate : 48.0 kHz
Frame rate : 31.250 FPS (1536 SPF)
Bit depth : 16 bits
Compression mode : Lossy
Stream size : 64.1 MiB (4%)
Service kind : Complete Main
Default : Yes
Forced : No

Скриншоты


Download

Download free and at maximum speed!

How to Download? · What is a torrent? · Ratings and Limitations




You cannot post new topics in this forum
You cannot reply to topics in this forum
You cannot edit your posts in this forum
You cannot delete your posts in this forum
You cannot vote in polls in this forum
You cannot attach files in this forum
You cannot download files in this forum