Одна ложь на двоих / Сезон: 1 / Серии: 1-4 из 4 (Алексей Праздников) [2018, мелодрама, WEBRip]


by Boris G ®
23-Дек-2018 15:24

[Цитировать]

Одна ложь на двоих / Сезон: 1 / Серии: 1-4 из 4 (Алексей Праздников) [2018, мелодрама, WEBRip]

Одна ложь на двоих
Год выпуска: 2018
Производство: Россия Приор Продакшн ТелеМас
Жанр: мелодрама
Продолжительность: 00:45:00
Субтитры: нет
Режиссёр: Алексей Праздников
В ролях: Анатолий Руденко, Антонина Паперная, Линда Лазарева, Екатерина Решетникова, Борис Хвошнянский, Клим Бердинский, Лев Бердинский
Описание: Варя – профессиональный организатор мероприятий в столичном агентстве. Она живет работой, считая, что не создана для семьи. По долгу службы Варя отправляется в родной Ульяновск, где ей предстоит провести пышную свадьбу для дочери звездного клиента. Варя собеседует кандидатов для своей команды, и среди них встречает свою первую любовь – Влада.
Автор рипа: 25Kuzmich
[box=red,green]Реклама отсутствует[/box]-Сэмпл: https://www.sendspace.com/file/u0n0qe
Качество: WEBRip
Формат: AVI
Видео кодек: XviD
Аудио кодек: AC3
Видео: XVID; 1643 Кбит/сек; 720х400 (16:9); 25,000 кадров/сек; Бит/(Пиксели*Кадры): 0.228
Аудио: AC-3; 192 Кбит/сек; 2 канала; 48,0 КГц

MI

Общее
Полное имя : D:\закачки\Odna.lozh.na.dvoih.2018.WEB-DLRip.25Kuzmich\Odna.lozh.na.dvoih.(01.seriya.iz.04).WEB-DLRip.25Kuzmich.avi
Формат : AVI
Формат/Информация : Audio Video Interleave
Размер файла : 616 Мбайт
Продолжительность : 46 м. 41 с.
Общий поток : 1845 Кбит/сек
Программа кодирования : VirtualDubMod 1.5.10.3 | www.virtualdub-fr.org || (build 2550/release)
Библиотека кодирования : VirtualDubMod build 2550/release
Видео
Идентификатор : 0
Формат : MPEG-4 Visual
Профиль формата : Advanced Simple@L5
Настройки формата : BVOP1
Параметр BVOP формата : 1
Параметр QPel формата : Нет
Параметр GMC формата : Без точки перехода
Параметр матрицы формата : Default (MPEG)
Идентификатор кодека : XVID
Идентификатор кодека/Подсказка : XviD
Продолжительность : 46 м. 41 с.
Битрейт : 1643 Кбит/сек
Ширина : 720 пикселей
Высота : 400 пикселей
Соотношение сторон : 16:9
Частота кадров : 25,000 кадров/сек
Цветовое пространство : YUV
Субдискретизация насыщенности : 4:2:0
Битовая глубина : 8 бит
Тип развёртки : Прогрессивная
Метод сжатия : С потерями
Бит/(Пиксели*Кадры) : 0.228
Размер потока : 549 Мбайт (89%)
Библиотека кодирования : XviD 1.2.1 (UTC 2008-12-04)
Аудио
Идентификатор : 1
Формат : AC-3
Формат/Информация : Audio Coding 3
Идентификатор кодека : 2000
Продолжительность : 46 м. 41 с.
Вид битрейта : Постоянный
Битрейт : 192 Кбит/сек
Каналы : 2 канала
Расположение каналов : Front: L R
Частота : 48,0 КГц
Частота кадров : 31,250 кадров/сек (1536 SPF)
Битовая глубина : 16 бит
Метод сжатия : С потерями
Размер потока : 64,1 Мбайт (10%)
Выравнивание : Разделение по промежуткам
Продолжительность промежутка : 40 мс. (1,00 видеокадр)
Время предзагрузки промежутка : 500 мс.
ServiceKind/String : Complete Main

Скриншоты

Предыдущие и альтернативные раздачи
Скачать

Скачать бесплатно и на максимальной скорости!

Как скачивать? · Что такое торрент? · Рейтинг и ограничения




Вы не можете начинать темы
Вы не можете отвечать на сообщения
Вы не можете редактировать свои сообщения
Вы не можете удалять свои сообщения
Вы не можете голосовать в опросах
Вы не можете прикреплять файлы к сообщениям
Вы не можете скачивать файлы