Вокзал / Серии: 1-12 из 12 (Андрей Кавун) [2003, драма, криминал, экранизация, WEBRip-AVC]


by Boris G ®
23-Дек-2018 15:24

[Цитировать]

Вокзал / Серии: 1-12 из 12 (Андрей Кавун) [2003, драма, криминал, экранизация, WEBRip-AVC]

Вокзал
Год выпуска: 2003
Производство: Рекун-кино, Беларусьфильм
Жанр: драма, криминал, экранизация
Продолжительность: 12 x ~ 00:45:00
Субтитры: Нет
Режиссёр: Андрей Кавун
В ролях: Дмитрий Назаров, Юрий Беляев, Валентин Смирнитский, Андрей Мерзликин, Светлана Антонова, Ярослав Бойко, Александр Олешко, Александра Урсуляк, Алексей Горбунов, Нелли Неведина, Ирина Гринёва, Виктор Соловьёв, Анна Уколова, Ольга Васильева, Ольга Сизова, Августин Милованов, Александр Робак, Надежда Маркина, Леван Мсхиладзе, Юзефа Саевич, Женя Рудой, Юлия Полубинская, Сергей Власов (IV), Пётр Юрченков (младший), Иван Павлов, Анатолий Терпицкий, Эвелина Сакуро, Тамара Миронова, Виктор Васильев (II), Андрей Олиференко, Владимир Грицевский, Александр Сухоцкий, Леонид Улащенко, Геннадий Готовчиц, Леня Усик, Игорь Николаев (IV), Александр Федорович, Андрей Дубровский, Татьяна Гаркуша, Александр Кашперов (II), Владимир Грицевский (мл.), Пётр Юрченков (ст.), Илья Черепко-Самохвалов, Игорь Сигов, Ольга Нефёдова, Андрей Голубев, Сергей Зыгмантович, Сергей Шульга (II), Андрей Душечкин, Александр Гусев (V), Виктор Манаев, Иван Новицкий, Инна Алексеева, Александр Бранкевич, Наталья Подвицкая, Виталий Редько, Андрей Перепечко, Иннокентий Сичкарь, Владимир Глотов, Виктор Ковальчук, Людмила Баталова, Елена Родак-Шкуратова, Татьяна Попова, Андрей Добровольский (II), Вера Шипило, Александр Овчинников (IV), Любовь Румянцева, Лидия Мордачёва
Описание: По одноименному роману Олега Андреева.
Авторы этого проекта решили заглянуть на вокзал, своеобразный маленький мир, зеркальное отображение большого. Здесь пересекаются пути рядовых обывателей и удачливых бизнесменов, ловких воров и беспутных девчонок, выброшенных на обочину жизни бомжей и вечно кочующих цыган. Вокзал – это встречи, расставания, постоянное ожидание и бесконечная дорога. Вокзал, в понимании авторов, это не здание и поезда, а люди – пассажиры и служащие. Вокзал – это обычная жизнь, текущая на наших глазах и одновременно скрытая от всех.
Реклама: Нет
Сэмпл: http://multi-up.com/1212895
Качество: WEBRip-AVC
Формат: MKV
Видео кодек: H.264
Аудио кодек: AC3
Видео: MPEG-4 (AVC), 688x364, 25 fps, ~ 1600 kbps, 0.25 bit/pixel
Аудио: AC3, 48.0 kHz, 2 ch, 192 Kbps

MI

General
Unique ID : 181092950999181521463467063489400038284 (0x883D3BD411DA65638712D1445BBA638C)
Complete name : Вокзал (01 сер.).mkv
Format : Matroska
Format version : Version 2
File size : 563 MiB
Duration : 43 min 53 s
Overall bit rate : 1 794 kb/s
Encoded date : UTC 2018-10-23 09:13:18
Writing application : mkvmerge v7.8.0 ('River Man') 32bit built on Apr 3 2015 12:11:22
Writing library : libebml v1.3.1 + libmatroska v1.4.2
Video
ID : 1
Format : AVC
Format/Info : Advanced Video Codec
Format profile : High@L3
Format settings : CABAC / 6 Ref Frames
Format settings, CABAC : Yes
Format settings, ReFrames : 6 frames
Codec ID : V_MPEG4/ISO/AVC
Duration : 43 min 53 s
Bit rate : 1 600 kb/s
Width : 688 pixels
Height : 364 pixels
Display aspect ratio : 1.890
Frame rate mode : Constant
Frame rate : 25.000 FPS
Color space : YUV
Chroma subsampling : 4:2:0
Bit depth : 8 bits
Scan type : Progressive
Bits/(Pixel*Frame) : 0.256
Stream size : 491 MiB (87%)
Writing library : x264 core 157 r2935 545de2f
Encoding settings : cabac=1 / ref=6 / deblock=1:0:0 / analyse=0x3:0x113 / me=umh / subme=8 / psy=1 / psy_rd=1.00:0.00 / mixed_ref=1 / me_range=24 / chroma_me=1 / trellis=1 / 8x8dct=1 / cqm=0 / deadzone=21,11 / fast_pskip=1 / chroma_qp_offset=-2 / threads=6 / lookahead_threads=1 / sliced_threads=0 / nr=0 / decimate=1 / interlaced=0 / bluray_compat=0 / stitchable=1 / constrained_intra=0 / bframes=6 / b_pyramid=2 / b_adapt=1 / b_bias=0 / direct=3 / weightb=1 / open_gop=0 / weightp=2 / keyint=250 / keyint_min=25 / scenecut=40 / intra_refresh=0 / rc_lookahead=40 / rc=2pass / mbtree=1 / bitrate=1600 / ratetol=1.0 / qcomp=0.60 / qpmin=0 / qpmax=69 / qpstep=4 / cplxblur=20.0 / qblur=0.5 / ip_ratio=1.40 / aq=1:1.00
Default : Yes
Forced : No
Audio
ID : 2
Format : AC-3
Format/Info : Audio Coding 3
Commercial name : Dolby Digital
Codec ID : A_AC3
Duration : 43 min 53 s
Bit rate mode : Constant
Bit rate : 192 kb/s
Channel(s) : 2 channels
Channel layout : L R
Sampling rate : 48.0 kHz
Frame rate : 31.250 FPS (1536 SPF)
Bit depth : 16 bits
Compression mode : Lossy
Stream size : 60.3 MiB (11%)
Service kind : Complete Main
Default : Yes
Forced : No

Скриншоты

Предыдущие и альтернативные раздачи
Скачать

Скачать бесплатно и на максимальной скорости!

Как скачивать? · Что такое торрент? · Рейтинг и ограничения




Вы не можете начинать темы
Вы не можете отвечать на сообщения
Вы не можете редактировать свои сообщения
Вы не можете удалять свои сообщения
Вы не можете голосовать в опросах
Вы не можете прикреплять файлы к сообщениям
Вы не можете скачивать файлы