Чисто московские убийства (Столичная сплетница) / Сезон: 2 / Серии: 1-8 из 8 (Филипп Коршунов) [2018, детектив, криминал, WEBRip-AVC]


by Boris G ®
23-Dec-2018 15:25

[Quote]

Чисто московские убийства (Столичная сплетница) / Сезон: 2 / Серии: 1-8 из 8 (Филипп Коршунов) [2018, детектив, криминал, WEBRip-AVC]

Чисто московские убийства
Год выпуска: 2018
Производство: Маурис Филм
Жанр: детектив, криминал
Продолжительность: ~00:44:00 серия
Субтитры: нет
Режиссёр: Филипп Коршунов
В ролях: Людмила Чурсина, Сергей Беляев, Дмитрий Мазуров, Татьяна Курова, Ирина Крутик, Александр Яцко, Аглая Тарасова, Дарья Дроздовская, Екатерина Семёнова, Ольга Богданова, Марианна Шульц, Серафима Низовская, Константин Быков, Евгения Бордзиловская, Алла Будницкая
Описание: Продолжение приключений нашей "мисс Марпл" - Екатерины Власовой (Людмила Чурсина). На этот раз, после вечеринки, устроенной по случаю открытия салона красоты "Виктория", происходит убийство владелицы заведения. Под подозрение попадает сама Екатерина Власова. По мнению следователя Капустина, старого недруга Екатерины, Власова таким образом устранила конкурентку, которая переманивала клиентов...

Реклама: Нет.

Все раздачи сериала
Sample
Качество: WEBRip-AVC - Серый1779
Формат: MKV
Видео кодек: H.264
Аудио кодек: AC3
Видео: MPEG4 AVC Video, H264, 16:9, 1024x576, 25 fps, ~1600 kbps, 0.109 bit/pixel
Аудио: AC3 Dolby Digital, 48.0 kHz, 2/0 (L,R) ch, 192 kbps

MI

General
Unique ID : 253322555996594989227241542679643460385 (0xBE94264D61CA18E4BF3B6517020A9321)
Complete name : D:\Чисто московские убийства 2.(2018).WEB-DLRip.(AVC).Files-x\01.Чисто московские убийства 2.(2018).WEB-DLRip.(AVC).by.Серый1779.Files-x.mkv
Format : Matroska
Format version : Version 2
File size : 574 MiB
Duration : 44 min 46 s
Overall bit rate : 1 793 kb/s
Encoded date : UTC 2018-10-26 19:31:01
Writing application : mkvmerge v7.8.0 ('River Man') 32bit built on Apr 3 2015 12:11:22
Writing library : libebml v1.3.1 + libmatroska v1.4.2
Video
ID : 1
Format : AVC
Format/Info : Advanced Video Codec
Format profile : High@L4.1
Format settings : CABAC / 9 Ref Frames
Format settings, CABAC : Yes
Format settings, ReFrames : 9 frames
Codec ID : V_MPEG4/ISO/AVC
Duration : 44 min 46 s
Bit rate : 1 600 kb/s
Width : 1 024 pixels
Height : 576 pixels
Display aspect ratio : 16:9
Frame rate mode : Constant
Frame rate : 25.000 FPS
Color space : YUV
Chroma subsampling : 4:2:0
Bit depth : 8 bits
Scan type : Progressive
Bits/(Pixel*Frame) : 0.109
Stream size : 501 MiB (87%)
Writing library : x264 core 146 r2538 121396c
Encoding settings : cabac=1 / ref=9 / deblock=1:-2:-1 / analyse=0x3:0x133 / me=umh / subme=9 / psy=1 / psy_rd=1.00:0.15 / mixed_ref=1 / me_range=32 / chroma_me=1 / trellis=2 / 8x8dct=1 / cqm=0 / deadzone=21,11 / fast_pskip=0 / chroma_qp_offset=-3 / threads=18 / lookahead_threads=3 / sliced_threads=0 / nr=0 / decimate=1 / interlaced=0 / bluray_compat=0 / constrained_intra=0 / bframes=9 / b_pyramid=2 / b_adapt=2 / b_bias=0 / direct=1 / weightb=1 / open_gop=0 / weightp=2 / keyint=250 / keyint_min=25 / scenecut=40 / intra_refresh=0 / rc=2pass / mbtree=0 / bitrate=1600 / ratetol=1.0 / qcomp=0.60 / qpmin=0 / qpmax=69 / qpstep=4 / cplxblur=20.0 / qblur=0.5 / ip_ratio=1.40 / pb_ratio=1.30 / aq=2:1.00
Default : Yes
Forced : No
Color range : Limited
Color primaries : BT.709
Transfer characteristics : BT.709
Matrix coefficients : BT.709
Audio
ID : 2
Format : AC-3
Format/Info : Audio Coding 3
Codec ID : A_AC3
Duration : 44 min 46 s
Bit rate mode : Constant
Bit rate : 192 kb/s
Channel(s) : 2 channels
Channel positions : Front: L R
Sampling rate : 44.1 kHz
Frame rate : 28.711 FPS (1536 SPF)
Bit depth : 16 bits
Compression mode : Lossy
Stream size : 61.5 MiB (11%)
Service kind : Complete Main
Default : Yes
Forced : No

Скриншоты


Download

Download free and at maximum speed!

How to Download? · What is a torrent? · Ratings and Limitations




You cannot post new topics in this forum
You cannot reply to topics in this forum
You cannot edit your posts in this forum
You cannot delete your posts in this forum
You cannot vote in polls in this forum
You cannot attach files in this forum
You cannot download files in this forum