Брачный контракт / Серии: 1-16 из 16 (Андрей Черных) [2009, драма, криминал, WEBRip-AVC]


by Boris G ®
23-Dec-2018 15:25

[Quote]

Брачный контракт / Серии: 1-16 из 16 (Андрей Черных) [2009, драма, криминал, WEBRip-AVC]

Брачный контракт
Год выпуска: 2009
Производство: Гамма-продакшн, Константин Про при участии Миракль-Фильм
Жанр: драма, криминал
Продолжительность: 16 x ~ 00:48:00
Субтитры: Нет
Режиссёр: Андрей Черных
В ролях: Армандс Нейландс-Яунземс, Роман Агеев, Игорь Ботвин, Юлия Джербинова, Иван Мартынов (II), Мухтар Гусенгаджиев, Владимир Глазков, Сергей Уманов, Лана Паули, Дмитрий Воробьёв (II), Юлия Левакова, Андрей Астраханцев, Глеб Стесеев, Михаил Почтарёв, Юлия Рудина, Мария Капустинская, Артём Анчуков, Андрей Шимко, Алексей Федькин, Антон Пулит, Дмитрий Поднозов, Александр Кудренко, Анастасия Самарская, Сергей Кошонин, Анна Вартанян, Полина Толстун, Денис Зайцев, Наталья Третьякова (V), Татьяна Ткач, Денис Синявский, Вадим Сквирский, Екатерина Решетникова, Ольга Альбанова, Сергей Петров (IV), Оксана Базилевич, Эрнест Тимерханов, Роман Жилкин, Елизавета Нилова, Пётр Семак, Татьяна Колганова, Елена Биргер, Дмитрий Сутырин, Ольга Медынич, Полина Филоненко, Константин Дунаевский, Ирина Демич, Владислав Третьяк (II), Евгения Гришина, Иван Васильев, Борис Хвошнянский, Татьяна Бондаренко (II), Алексей Торковер, Манана Гогитидзе, Александр Строев (III), Владислав Резник, Юлия Алексеева, Полина Каманина, Сергей Козик, Елена Калинина, Наталья Круглова, Валерий Кухарешин, Наталья Шапошникова, Наталья Латышева, Сергей Перегудов, Вадим Франчук, Алена Кононова, Максим Фомин, Екатерина Морачевская, Валерий Гришко, Степан Пивкин
Описание: Трое мужчин — психолог Петр Разумовский, юрист Владимир Перов и бывший сотрудник правоохранительных органов Леонид Богатырев открывают брачное агентство. Их кредо — «стоять на страже женских интересов». Их дело — помощь семейным парам или отдельным членам семей в их повседневном «брачном» труде, в ситуации развода или в тяжелейших условиях постразводных обстоятельств. В клиентскую базу агентства входят совершенно разные люди, но у каждого из них — не один скелет в шкафу, а за красивым фасадом счастливой семьи нередко скрывается настоящая драма… Когда «дела семейные» превращаются в захватывающий детектив, а на кону оказывается человеческая жизнь, троице приходится приниматься за собственное расследование…
Реклама: Нет
Сэмпл: http://multi-up.com/1212812/
Качество: WEBRip-AVC
Формат: MKV
Видео кодек: H.264
Аудио кодек: AC3
Видео: MPEG-4 (AVC), 720x400, 25 fps, ~ 1600 kbps, 0.22 bit/pixel
Аудио: AC3, 48.0 kHz, 2 ch, 192 Kbps

MI

General
Unique ID : 59748698586125809262023255334527442294 (0x2CF32E473D25C3F5D817B6D1869C1D76)
Complete name : Брачный контракт (01 сер.).mkv
Format : Matroska
Format version : Version 4
File size : 617 MiB
Duration : 48 min 3 s
Overall bit rate : 1 794 kb/s
Encoded date : UTC 2018-10-23 08:03:10
Writing application : mkvmerge v28.0.0 ('Voice In My Head') 64-bit
Writing library : libebml v1.3.6 + libmatroska v1.4.9
Video
ID : 1
Format : AVC
Format/Info : Advanced Video Codec
Format profile : High@L3
Format settings : CABAC / 6 Ref Frames
Format settings, CABAC : Yes
Format settings, ReFrames : 6 frames
Codec ID : V_MPEG4/ISO/AVC
Duration : 48 min 3 s
Bit rate : 1 600 kb/s
Width : 720 pixels
Height : 400 pixels
Display aspect ratio : 1.731
Frame rate mode : Constant
Frame rate : 25.000 FPS
Color space : YUV
Chroma subsampling : 4:2:0
Bit depth : 8 bits
Scan type : Progressive
Bits/(Pixel*Frame) : 0.222
Stream size : 538 MiB (87%)
Writing library : x264 core 157 r2935 545de2f
Encoding settings : cabac=1 / ref=6 / deblock=1:0:0 / analyse=0x3:0x113 / me=umh / subme=8 / psy=1 / psy_rd=1.00:0.00 / mixed_ref=1 / me_range=24 / chroma_me=1 / trellis=1 / 8x8dct=1 / cqm=0 / deadzone=21,11 / fast_pskip=1 / chroma_qp_offset=-2 / threads=6 / lookahead_threads=1 / sliced_threads=0 / nr=0 / decimate=1 / interlaced=0 / bluray_compat=0 / stitchable=1 / constrained_intra=0 / bframes=6 / b_pyramid=2 / b_adapt=1 / b_bias=0 / direct=3 / weightb=1 / open_gop=0 / weightp=2 / keyint=250 / keyint_min=25 / scenecut=40 / intra_refresh=0 / rc_lookahead=40 / rc=2pass / mbtree=1 / bitrate=1600 / ratetol=1.0 / qcomp=0.60 / qpmin=0 / qpmax=69 / qpstep=4 / cplxblur=20.0 / qblur=0.5 / ip_ratio=1.40 / aq=1:1.00
Default : Yes
Forced : No
Audio
ID : 2
Format : AC-3
Format/Info : Audio Coding 3
Commercial name : Dolby Digital
Codec ID : A_AC3
Duration : 48 min 3 s
Bit rate mode : Constant
Bit rate : 192 kb/s
Channel(s) : 2 channels
Channel layout : L R
Sampling rate : 48.0 kHz
Frame rate : 31.250 FPS (1536 SPF)
Bit depth : 16 bits
Compression mode : Lossy
Stream size : 66.0 MiB (11%)
Service kind : Complete Main
Default : Yes
Forced : No

Скриншоты

Предыдущие и альтернативные раздачи
Download

Download free and at maximum speed!

How to Download? · What is a torrent? · Ratings and Limitations




You cannot post new topics in this forum
You cannot reply to topics in this forum
You cannot edit your posts in this forum
You cannot delete your posts in this forum
You cannot vote in polls in this forum
You cannot attach files in this forum
You cannot download files in this forum