Семейная тайна / Сезон: 1 / Серии: 1-4 из 4 (Денис Елеонский) [2018, детектив, SATRip]


by Boris G ®
23-Dec-2018 15:25

[Quote]

Семейная тайна / Сезон: 1 / Серии: 1-4 из 4 (Денис Елеонский) [2018, детектив, SATRip]

Семейная тайна- Год выпуска: 2018
Производство: «Эволюшн Пикчерс»
Жанр: Детектив
Продолжительность: ~ 46 мин.
Субтитры: Отсутствуют-Режиссер: Денис Елеонский-В ролях: Геннадий Смирнов, Сергей Паршин, Екатерина Решетникова, Елена Радевич, Валерий Кукаришин и др.-Описание: Дочь известного фармацевтического магната Станислава Романовского Маргарита уверена, что её отца хотят убить. Она подозревает своих брата и сестру, которых отец намерен оставить без наследства. На юбилей отца Маргарита приходит с частным детективом Олегом, попросив притвориться её лондонским другом Алексом. Олег присматривается к собравшимся и понимает, что в смерти главы семьи могут быть заинтересованы все: старинный друг с таинственной спутницей, молодая любовница и даже преданная горничная. На следующую ночь после праздника действительно происходит убийство, но жертвой становится вовсе не Романовский. Кто же убийца? Олегу предстоит распутать роковой клубок семейных тайн и снять все маски с подозреваемых.-Релиз by 25Kuzmich-Реклама. Нет
Все раздачи сериала
Семпл-Качество:SATRip
Формат: AVI
Видео кодек: XviD
Аудио кодек: MP3
Видео: 720x400 (1.80:1), 25 fps, XviD build 50 ~1649 kbps avg, 0.23 bit/pixel
Аудио: 48 kHz, MPEG Layer 3, 2 ch, ~192.00 kbps avg

MediaInfo

Код:Общее
Полное имя : D:\Торрент\После\Semeynaya.tayna.2018.XviD.SATRip.25Kuzmich\Semeynaya.tayna.(01.seriya.iz.04).XviD.SATRip.25Kuzmich.avi
Формат : AVI
Формат/Информация : Audio Video Interleave
Размер файла : 614 Мбайт
Продолжительность : 46 м. 22 с.
Общий поток : 1852 Кбит/сек
Программа кодирования : VirtualDubMod 1.5.10.3 | www.virtualdub-fr.org || (build 2550/release)
Библиотека кодирования : VirtualDubMod build 2550/release
Видео
Идентификатор : 0
Формат : MPEG-4 Visual
Профиль формата : Advanced Simple@L5
Настройки формата : BVOP1
Параметр BVOP формата : 1
Параметр QPel формата : Нет
Параметр GMC формата : Без точки перехода
Параметр матрицы формата : Default (MPEG)
Идентификатор кодека : XVID
Идентификатор кодека/Подсказка : XviD
Продолжительность : 46 м. 22 с.
Битрейт : 1650 Кбит/сек
Ширина : 720 пикселей
Высота : 400 пикселей
Соотношение сторон : 16:9
Частота кадров : 25,000 кадров/сек
Цветовое пространство : YUV
Субдискретизация насыщенности : 4:2:0
Битовая глубина : 8 бит
Тип развёртки : Прогрессивная
Метод сжатия : С потерями
Бит/(Пиксели*Кадры) : 0.229
Размер потока : 547 Мбайт (89%)
Библиотека кодирования : XviD 1.2.1 (UTC 2008-12-04)
Аудио
Идентификатор : 1
Формат : MPEG Audio
Версия формата : Version 1
Профиль формата : Layer 3
Настройки формата : Joint stereo
Идентификатор кодека : 55
Идентификатор кодека/Подсказка : MP3
Продолжительность : 46 м. 22 с.
Вид битрейта : Постоянный
Битрейт : 192 Кбит/сек
Каналы : 2 канала
Частота : 48,0 КГц
Частота кадров : 41,667 кадра/сек (1152 SPF)
Метод сжатия : С потерями
Размер потока : 63,7 Мбайт (10%)
Выравнивание : Соединение по промежуткам
Продолжительность промежутка : 40 мс. (1,00 видеокадр)
Время предзагрузки промежутка : 504 мс.
Библиотека кодирования : LAME3.99r
Настройки программы : -m j -V 4 -q 2 -lowpass 18.6 -b 192

Скриншоты








Download

Download free and at maximum speed!

How to Download? · What is a torrent? · Ratings and Limitations




You cannot post new topics in this forum
You cannot reply to topics in this forum
You cannot edit your posts in this forum
You cannot delete your posts in this forum
You cannot vote in polls in this forum
You cannot attach files in this forum
You cannot download files in this forum