Next / Следующий / Сезон: 1-3 / Серии: 1-32 из 32 (Олег Фомин) [2001-2003, драма, комедия, детектив, 5XDVD9]


by Boris G ®
23-Дек-2018 15:25

[Цитировать]

Next / Следующий / Сезон: 1-3 / Серии: 1-32 из 32 (Олег Фомин) [2001-2003, драма, комедия, детектив, 5XDVD9]

-Next / Следующий- Год выпуска: 2001-2003
Производство: Рен-ТВ
Жанр: драма, комедия, детектив
Продолжительность: ~ 25:35:55
Субтитры: нет
Режиссёр: Олег Фомин
В ролях: Александр Абдулов, Александр Лойе, Нина Усатова, Сергей Степанченко, Сергей Греков, Сергей Чонишвили, Олег Фомин, Татьяна Арнтгольц, Мария Аронова, Владимир Епископосян и др.



Описание:Next. Следующий (4 серии)Лавр — вор в законе, авторитет «старых понятий», король преступного мира. Он не может иметь семью и детей. Лавр так бы и не узнал ничего о своем сыне, если бы не экзамены, на которых Федечку «завалили». Федору светит армия. И чтобы спасти племянника, его боевая тетя решает напомнить Лавру о его отцовском долге.Next - 2 (12 серий)Криминальный авторитет Лавр окончательно отошел от преступных дел и живет вполне мирной жизнью. Но перед ним опять встает выбор - либо продолжить мирное существование, либо вспомнить о своей "авторитетной" профессии. Чтобы помочь беззащитному мальчишке Лавру нужно опять стать королем преступного мира.
Next - 3 (16 серий)
Лавр (Александр Абдулов) решает распрощаться с депутатским креслом и начинает приготовления к собственной свадьбе. Его невеста Ольга Кирсанова (Екатерина Волкова) ставит только одно условие: жених не должен ни на минуту опоздать в ЗАГС. Вроде бы пустяк, но проблемы, которые обрушиваются на Лавра накануне бракосочетания, могут изменить ощущение времени у любого нормального человека...
Доп. информация:
Next. Следующий взято издание от Русское счастье 2012 года 3XDVD9 (по одному DVD9 на сезон), полиграфия прилагается.
Next 2 и Next 3 взято издание Мистерия звука 2008 года 4XDVD9 (по два DVD9 на сезон), полиграфия прилагается.
Качество: 5XDVD9
Формат: DVD-Video
Видео кодек: MPEG2
Аудио кодек: AC3
Next. Следующий
Видео: PAL 16:9 720x576@1024x576, 25.000 fps, ~ 4905 kbps
Аудио: Russian AC3 2.0, 48,0 КГц, 192 kbps
Next 2
Видео: PAL 4:3 720x576@768x576, 25.000 fps, ~ 3653 / 3653 kbps
Аудио: Russian AC3 2.0, 48,0 КГц, 256 kbps
Next 3
Видео: PAL 4:3 720x576@768x576, 25.000 fps, ~ 2922 / 2934 kbps
Аудио: Russian AC3 2.0, 48,0 КГц, 256 kbps

MI

Общее
Полное имя : I:\Фильмы\Сериалы\Next (2001-2003) 5XDVD9\(2001) Next. Следующий\VIDEO_TS\VIDEO_TS.BUP
Формат : DVD Video
Профиль формата : Menu
Размер файла : 14,0 Кбайт
Режим общего битрейта : Переменный
FileExtension_Invalid : ifo
Видео
Идентификатор : 224 (0xE0)
Формат : MPEG Video
Версия формата : Version 2
Вид битрейта : Переменный
Ширина : 720 пикселей
Высота : 576 пикселей
Соотношение сторон : 4:3
Частота кадров : 25,000 кадров/сек
Стандарт вещания : PAL
Метод сжатия : С потерями
Общее
Полное имя : I:\Фильмы\Сериалы\Next (2001-2003) 5XDVD9\(2001) Next. Следующий\VIDEO_TS\VIDEO_TS.IFO
Формат : DVD Video
Профиль формата : Menu
Размер файла : 14,0 Кбайт
Режим общего битрейта : Переменный
Видео
Идентификатор : 224 (0xE0)
Формат : MPEG Video
Версия формата : Version 2
Вид битрейта : Переменный
Ширина : 720 пикселей
Высота : 576 пикселей
Соотношение сторон : 4:3
Частота кадров : 25,000 кадров/сек
Стандарт вещания : PAL
Метод сжатия : С потерями
Общее
Полное имя : I:\Фильмы\Сериалы\Next (2001-2003) 5XDVD9\(2001) Next. Следующий\VIDEO_TS\VIDEO_TS.VOB
Формат : MPEG-PS
Размер файла : 48,0 Кбайт
Продолжительность : 40 мс.
Режим общего битрейта : Переменный
Общий поток : 9830 Кбит/сек
Видео
Идентификатор : 224 (0xE0)
Формат : MPEG Video
Версия формата : Version 2
Профиль формата : Main@Main
Параметр BVOP формата : Нет
Параметр матрицы формата : По умолчанию
Продолжительность : 40 мс.
Вид битрейта : Переменный
Максимальный битрейт : 9000 Кбит/сек
Ширина : 720 пикселей
Высота : 576 пикселей
Соотношение сторон : 4:3
Частота кадров : 25,000 кадров/сек
Стандарт вещания : PAL
Цветовое пространство : YUV
Субдискретизация насыщенности : 4:2:0
Битовая глубина : 8 бит
Тип развёртки : Прогрессивная
Порядок развёртки : Верхнее поле первое
Метод сжатия : С потерями
Временной код первого кадра : 00:00:00:00
Оригинал временного кода : Group of pictures header
Основные цвета : BT.601 PAL
Характеристики трансфера : BT.470 System B/G
Коэффициенты матрицы : BT.470 System B/G
Меню
Общее
Полное имя : I:\Фильмы\Сериалы\Next (2001-2003) 5XDVD9\(2001) Next. Следующий\VIDEO_TS\VTS_01_0.BUP
Формат : DVD Video
Профиль формата : Program
Размер файла : 138 Кбайт
Продолжительность : 52 м. 4 с.
Режим общего битрейта : Переменный
Общий поток : 362 бит/сек
FileExtension_Invalid : ifo
Видео
Идентификатор : 224 (0xE0)
Формат : MPEG Video
Версия формата : Version 2
Продолжительность : 52 м. 4 с.
Вид битрейта : Переменный
Ширина : 720 пикселей
Высота : 576 пикселей
Соотношение сторон : 16:9
Частота кадров : 25,000 кадров/сек
Стандарт вещания : PAL
Метод сжатия : С потерями
Аудио
Идентификатор : 128 (0x80)
Формат : AC-3
Формат/Информация : Audio Coding 3
Продолжительность : 52 м. 4 с.
Каналы : 2 канала
Частота : 48,0 КГц
Метод сжатия : С потерями
Язык : English
Меню #1
Продолжительность : 48 м. 53 с.
00:00:00.000 : Chapter 1
00:06:34.560 : Chapter 2
00:12:54.640 : Chapter 3
00:18:36.120 : Chapter 4
00:24:16.640 : Chapter 5
00:30:18.600 : Chapter 6
00:36:18.040 : Chapter 7
00:42:39.320 : Chapter 8
List (Audio) : 0
Меню #2
Продолжительность : 48 м. 42 с.
00:00:00.000 : Chapter 1
00:06:23.880 : Chapter 2
00:12:53.280 : Chapter 3
00:19:57.760 : Chapter 4
00:25:18.080 : Chapter 5
00:31:36.920 : Chapter 6
00:37:24.680 : Chapter 7
00:42:51.760 : Chapter 8
List (Audio) : 0
Меню #3
Продолжительность : 52 м. 4 с.
00:00:00.000 : Chapter 1
00:06:49.480 : Chapter 2
00:12:49.080 : Chapter 3
00:18:54.800 : Chapter 4
00:25:50.200 : Chapter 5
00:32:50.280 : Chapter 6
00:38:58.280 : Chapter 7
00:45:33.240 : Chapter 8
List (Audio) : 0
Меню #4
Продолжительность : 51 м. 22 с.
00:00:00.000 : Chapter 1
00:06:35.960 : Chapter 2
00:13:22.240 : Chapter 3
00:21:57.400 : Chapter 4
00:27:39.240 : Chapter 5
00:33:51.360 : Chapter 6
00:39:33.480 : Chapter 7
00:46:25.760 : Chapter 8
List (Audio) : 0
Общее
Полное имя : I:\Фильмы\Сериалы\Next (2001-2003) 5XDVD9\(2001) Next. Следующий\VIDEO_TS\VTS_01_0.IFO
Формат : DVD Video
Профиль формата : Program
Размер файла : 138 Кбайт
Продолжительность : 52 м. 4 с.
Режим общего битрейта : Переменный
Общий поток : 362 бит/сек
Видео
Идентификатор : 224 (0xE0)
Формат : MPEG Video
Версия формата : Version 2
Продолжительность : 52 м. 4 с.
Вид битрейта : Переменный
Ширина : 720 пикселей
Высота : 576 пикселей
Соотношение сторон : 16:9
Частота кадров : 25,000 кадров/сек
Стандарт вещания : PAL
Метод сжатия : С потерями
Аудио
Идентификатор : 128 (0x80)
Формат : AC-3
Формат/Информация : Audio Coding 3
Продолжительность : 52 м. 4 с.
Каналы : 2 канала
Частота : 48,0 КГц
Метод сжатия : С потерями
Язык : English
Меню #1
Продолжительность : 48 м. 53 с.
00:00:00.000 : Chapter 1
00:06:34.560 : Chapter 2
00:12:54.640 : Chapter 3
00:18:36.120 : Chapter 4
00:24:16.640 : Chapter 5
00:30:18.600 : Chapter 6
00:36:18.040 : Chapter 7
00:42:39.320 : Chapter 8
List (Audio) : 0
Меню #2
Продолжительность : 48 м. 42 с.
00:00:00.000 : Chapter 1
00:06:23.880 : Chapter 2
00:12:53.280 : Chapter 3
00:19:57.760 : Chapter 4
00:25:18.080 : Chapter 5
00:31:36.920 : Chapter 6
00:37:24.680 : Chapter 7
00:42:51.760 : Chapter 8
List (Audio) : 0
Меню #3
Продолжительность : 52 м. 4 с.
00:00:00.000 : Chapter 1
00:06:49.480 : Chapter 2
00:12:49.080 : Chapter 3
00:18:54.800 : Chapter 4
00:25:50.200 : Chapter 5
00:32:50.280 : Chapter 6
00:38:58.280 : Chapter 7
00:45:33.240 : Chapter 8
List (Audio) : 0
Меню #4
Продолжительность : 51 м. 22 с.
00:00:00.000 : Chapter 1
00:06:35.960 : Chapter 2
00:13:22.240 : Chapter 3
00:21:57.400 : Chapter 4
00:27:39.240 : Chapter 5
00:33:51.360 : Chapter 6
00:39:33.480 : Chapter 7
00:46:25.760 : Chapter 8
List (Audio) : 0
Общее
Полное имя : I:\Фильмы\Сериалы\Next (2001-2003) 5XDVD9\(2001) Next. Следующий\VIDEO_TS\VTS_01_0.VOB
Формат : MPEG-PS
Размер файла : 21,0 Мбайт
Продолжительность : 15 с. 40 мс.
Режим общего битрейта : Переменный
Общий поток : 11,7 Мбит/сек
Видео
Идентификатор : 224 (0xE0)
Формат : MPEG Video
Версия формата : Version 2
Профиль формата : Main@Main
Настройки формата : BVOP
Параметр BVOP формата : Да
Параметр матрицы формата : По умолчанию
Параметр GOP формата : Variable
Структура изображения : Frame
Продолжительность : 15 с. 40 мс.
Вид битрейта : Переменный
Битрейт : 11,1 Мбит/сек
Максимальный битрейт : 5610 Кбит/сек
Ширина : 720 пикселей
Высота : 576 пикселей
Соотношение сторон : 16:9
Частота кадров : 25,000 кадров/сек
Стандарт вещания : PAL
Цветовое пространство : YUV
Субдискретизация насыщенности : 4:2:0
Битовая глубина : 8 бит
Тип развёртки : Чересстрочная
Порядок развёртки : Нижнее поле первое
Метод сжатия : С потерями
Бит/(Пиксели*Кадры) : 1.070
Временной код первого кадра : 00:00:00:00
Оригинал временного кода : Group of pictures header
GOP, открыто/закрыто : Закрыто
Размер потока : 19,9 Мбайт (95%)
Аудио
Идентификатор : 189 (0xBD)-128 (0x80)
Формат : AC-3
Формат/Информация : Audio Coding 3
Коммерческое название : Dolby Digital
Режим смешивания : DVD-Video
Продолжительность : 14 с. 672 мс.
Вид битрейта : Постоянный
Битрейт : 384 Кбит/сек
Каналы : 2 канала
Channel layout : L R
Частота : 48,0 КГц
Частота кадров : 31,250 кадров/сек (1536 SPF)
Битовая глубина : 16 бит
Метод сжатия : С потерями
Задержка видео : 80 мс.
Размер потока : 688 Кбайт (3%)
ServiceKind/String : Complete Main
Текст #1
Идентификатор : 189 (0xBD)-32 (0x20)
Формат : RLE
Формат/Информация : Run-length encoding
Режим смешивания : DVD-Video
Задержка видео : 80 мс.
Текст #2
Идентификатор : 189 (0xBD)-33 (0x21)
Формат : RLE
Формат/Информация : Run-length encoding
Режим смешивания : DVD-Video
Задержка видео : 80 мс.
Текст #3
Идентификатор : 189 (0xBD)-34 (0x22)
Формат : RLE
Формат/Информация : Run-length encoding
Режим смешивания : DVD-Video
Задержка видео : 80 мс.
Меню
Общее
Полное имя : I:\Фильмы\Сериалы\Next (2001-2003) 5XDVD9\(2001) Next. Следующий\VIDEO_TS\VTS_01_1.VOB
Формат : MPEG-PS
Размер файла : 1000 Мбайт
Продолжительность : 28 м. 22 с.
Режим общего битрейта : Переменный
Общий поток : 4930 Кбит/сек
Библиотека кодирования : |HCenc 0.24.0.0 - (c) 2004/2010|
Видео
Идентификатор : 224 (0xE0)
Формат : MPEG Video
Версия формата : Version 2
Профиль формата : Main@Main
Настройки формата : CustomMatrix / BVOP
Параметр BVOP формата : Да
Параметр матрицы формата : Выборочная
Параметр GOP формата : Variable
Продолжительность : 28 м. 22 с.
Вид битрейта : Переменный
Битрейт : 4640 Кбит/сек
Максимальный битрейт : 8100 Кбит/сек
Ширина : 720 пикселей
Высота : 576 пикселей
Соотношение сторон : 16:9
Частота кадров : 25,000 кадров/сек
Стандарт вещания : PAL
Цветовое пространство : YUV
Субдискретизация насыщенности : 4:2:0
Битовая глубина : 8 бит
Тип развёртки : Прогрессивная
Метод сжатия : С потерями
Бит/(Пиксели*Кадры) : 0.447
Временной код первого кадра : 00:00:00:00
Оригинал временного кода : Group of pictures header
GOP, открыто/закрыто : Открыто
GOP, открыто/закрыто на первом кадре : Закрыто
Размер потока : 942 Мбайт (94%)
Библиотека кодирования : |HCenc 0.24.0.0 - (c) 2004/2010|
Аудио
Идентификатор : 189 (0xBD)-128 (0x80)
Формат : AC-3
Формат/Информация : Audio Coding 3
Коммерческое название : Dolby Digital
Режим смешивания : DVD-Video
Продолжительность : 28 м. 22 с.
Вид битрейта : Постоянный
Битрейт : 192 Кбит/сек
Каналы : 2 канала
Channel layout : L R
Частота : 48,0 КГц
Частота кадров : 31,250 кадров/сек (1536 SPF)
Битовая глубина : 16 бит
Метод сжатия : С потерями
Размер потока : 39,0 Мбайт (4%)
ServiceKind/String : Complete Main
Меню
Общее
Полное имя : I:\Фильмы\Сериалы\Next (2001-2003) 5XDVD9\(2001) Next. Следующий\VIDEO_TS\VTS_01_2.VOB
Формат : MPEG-PS
Размер файла : 1000 Мбайт
Режим общего битрейта : Переменный
Видео
Идентификатор : 224 (0xE0)
Формат : MPEG Video
Версия формата : Version 2
Профиль формата : Main@Main
Настройки формата : CustomMatrix / BVOP
Параметр BVOP формата : Да
Параметр матрицы формата : Выборочная
Параметр GOP формата : Variable
Вид битрейта : Переменный
Максимальный битрейт : 8100 Кбит/сек
Ширина : 720 пикселей
Высота : 576 пикселей
Соотношение сторон : 16:9
Частота кадров : 25,000 кадров/сек
Стандарт вещания : PAL
Цветовое пространство : YUV
Субдискретизация насыщенности : 4:2:0
Битовая глубина : 8 бит
Тип развёртки : Прогрессивная
Метод сжатия : С потерями
Временной код первого кадра : 00:28:22:08
Оригинал временного кода : Group of pictures header
GOP, открыто/закрыто : Открыто
Аудио
Идентификатор : 189 (0xBD)-128 (0x80)
Формат : AC-3
Формат/Информация : Audio Coding 3
Коммерческое название : Dolby Digital
Режим смешивания : DVD-Video
Вид битрейта : Постоянный
Битрейт : 192 Кбит/сек
Каналы : 2 канала
Channel layout : L R
Частота : 48,0 КГц
Частота кадров : 31,250 кадров/сек (1536 SPF)
Битовая глубина : 16 бит
Метод сжатия : С потерями
Задержка видео : -224 мс.
ServiceKind/String : Complete Main
Меню
Общее
Полное имя : I:\Фильмы\Сериалы\Next (2001-2003) 5XDVD9\(2001) Next. Следующий\VIDEO_TS\VTS_01_3.VOB
Формат : MPEG-PS
Размер файла : 1000 Мбайт
Продолжительность : 29 м. 3 с.
Режим общего битрейта : Переменный
Общий поток : 4811 Кбит/сек
Видео
Идентификатор : 224 (0xE0)
Формат : MPEG Video
Версия формата : Version 2
Профиль формата : Main@Main
Настройки формата : CustomMatrix / BVOP
Параметр BVOP формата : Да
Параметр матрицы формата : Выборочная
Параметр GOP формата : Variable
Продолжительность : 29 м. 3 с.
Вид битрейта : Переменный
Битрейт : 4523 Кбит/сек
Максимальный битрейт : 8100 Кбит/сек
Ширина : 720 пикселей
Высота : 576 пикселей
Соотношение сторон : 16:9
Частота кадров : 25,000 кадров/сек
Стандарт вещания : PAL
Цветовое пространство : YUV
Субдискретизация насыщенности : 4:2:0
Битовая глубина : 8 бит
Тип развёртки : Прогрессивная
Метод сжатия : С потерями
Бит/(Пиксели*Кадры) : 0.436
Временной код первого кадра : 00:08:35:08
Оригинал временного кода : Group of pictures header
Размер потока : 940 Мбайт (94%)
Аудио
Идентификатор : 189 (0xBD)-128 (0x80)
Формат : AC-3
Формат/Информация : Audio Coding 3
Коммерческое название : Dolby Digital
Режим смешивания : DVD-Video
Продолжительность : 29 м. 3 с.
Вид битрейта : Постоянный
Битрейт : 192 Кбит/сек
Каналы : 2 канала
Channel layout : L R
Частота : 48,0 КГц
Частота кадров : 31,250 кадров/сек (1536 SPF)
Битовая глубина : 16 бит
Метод сжатия : С потерями
Задержка видео : -160 мс.
Размер потока : 39,9 Мбайт (4%)
ServiceKind/String : Complete Main
Меню
Общее
Полное имя : I:\Фильмы\Сериалы\Next (2001-2003) 5XDVD9\(2001) Next. Следующий\VIDEO_TS\VTS_01_4.VOB
Формат : MPEG-PS
Размер файла : 1000 Мбайт
Режим общего битрейта : Переменный
Видео
Идентификатор : 224 (0xE0)
Формат : MPEG Video
Версия формата : Version 2
Профиль формата : Main@Main
Настройки формата : CustomMatrix / BVOP
Параметр BVOP формата : Да
Параметр матрицы формата : Выборочная
Параметр GOP формата : Variable
Вид битрейта : Переменный
Максимальный битрейт : 8100 Кбит/сек
Ширина : 720 пикселей
Высота : 576 пикселей
Соотношение сторон : 16:9
Частота кадров : 25,000 кадров/сек
Стандарт вещания : PAL
Цветовое пространство : YUV
Субдискретизация насыщенности : 4:2:0
Битовая глубина : 8 бит
Тип развёртки : Прогрессивная
Метод сжатия : С потерями
Временной код первого кадра : 00:37:38:24
Оригинал временного кода : Group of pictures header
Аудио
Идентификатор : 189 (0xBD)-128 (0x80)
Формат : AC-3
Формат/Информация : Audio Coding 3
Коммерческое название : Dolby Digital
Режим смешивания : DVD-Video
Вид битрейта : Постоянный
Битрейт : 192 Кбит/сек
Каналы : 2 канала
Channel layout : L R
Частота : 48,0 КГц
Частота кадров : 31,250 кадров/сек (1536 SPF)
Битовая глубина : 16 бит
Метод сжатия : С потерями
Задержка видео : -256 мс.
ServiceKind/String : Complete Main
Меню
Общее
Полное имя : I:\Фильмы\Сериалы\Next (2001-2003) 5XDVD9\(2001) Next. Следующий\VIDEO_TS\VTS_01_5.VOB
Формат : MPEG-PS
Размер файла : 1000 Мбайт
Продолжительность : 29 м. 2 с.
Режим общего битрейта : Переменный
Общий поток : 4817 Кбит/сек
Видео
Идентификатор : 224 (0xE0)
Формат : MPEG Video
Версия формата : Version 2
Профиль формата : Main@Main
Настройки формата : CustomMatrix / BVOP
Параметр BVOP формата : Да
Параметр матрицы формата : Выборочная
Параметр GOP формата : Variable
Продолжительность : 29 м. 2 с.
Вид битрейта : Переменный
Битрейт : 4529 Кбит/сек
Максимальный битрейт : 8100 Кбит/сек
Ширина : 720 пикселей
Высота : 576 пикселей
Соотношение сторон : 16:9
Частота кадров : 25,000 кадров/сек
Стандарт вещания : PAL
Цветовое пространство : YUV
Субдискретизация насыщенности : 4:2:0
Битовая глубина : 8 бит
Тип развёртки : Прогрессивная
Метод сжатия : С потерями
Бит/(Пиксели*Кадры) : 0.437
Временной код первого кадра : 00:16:15:22
Оригинал временного кода : Group of pictures header
Размер потока : 940 Мбайт (94%)
Аудио
Идентификатор : 189 (0xBD)-128 (0x80)
Формат : AC-3
Формат/Информация : Audio Coding 3
Коммерческое название : Dolby Digital
Режим смешивания : DVD-Video
Продолжительность : 29 м. 1 с.
Вид битрейта : Постоянный
Битрейт : 192 Кбит/сек
Каналы : 2 канала
Channel layout : L R
Частота : 48,0 КГц
Частота кадров : 31,250 кадров/сек (1536 SPF)
Битовая глубина : 16 бит
Метод сжатия : С потерями
Задержка видео : -136 мс.
Размер потока : 39,9 Мбайт (4%)
ServiceKind/String : Complete Main
Меню
Общее
Полное имя : I:\Фильмы\Сериалы\Next (2001-2003) 5XDVD9\(2001) Next. Следующий\VIDEO_TS\VTS_01_6.VOB
Формат : MPEG-PS
Размер файла : 1000 Мбайт
Режим общего битрейта : Переменный
Видео
Идентификатор : 224 (0xE0)
Формат : MPEG Video
Версия формата : Version 2
Профиль формата : Main@Main
Настройки формата : CustomMatrix / BVOP
Параметр BVOP формата : Да
Параметр матрицы формата : Выборочная
Параметр GOP формата : Variable
Вид битрейта : Переменный
Максимальный битрейт : 8100 Кбит/сек
Ширина : 720 пикселей
Высота : 576 пикселей
Соотношение сторон : 16:9
Частота кадров : 25,000 кадров/сек
Стандарт вещания : PAL
Цветовое пространство : YUV
Субдискретизация насыщенности : 4:2:0
Битовая глубина : 8 бит
Тип развёртки : Прогрессивная
Метод сжатия : С потерями
Временной код первого кадра : 00:45:17:22
Оригинал временного кода : Group of pictures header
Аудио
Идентификатор : 189 (0xBD)-128 (0x80)
Формат : AC-3
Формат/Информация : Audio Coding 3
Коммерческое название : Dolby Digital
Режим смешивания : DVD-Video
Вид битрейта : Постоянный
Битрейт : 192 Кбит/сек
Каналы : 2 канала
Channel layout : L R
Частота : 48,0 КГц
Частота кадров : 31,250 кадров/сек (1536 SPF)
Битовая глубина : 16 бит
Метод сжатия : С потерями
Задержка видео : -200 мс.
ServiceKind/String : Complete Main
Меню
Общее
Полное имя : I:\Фильмы\Сериалы\Next (2001-2003) 5XDVD9\(2001) Next. Следующий\VIDEO_TS\VTS_01_7.VOB
Формат : MPEG-PS
Размер файла : 1000 Мбайт
Продолжительность : 26 м. 55 с.
Режим общего битрейта : Переменный
Общий поток : 5192 Кбит/сек
Видео
Идентификатор : 224 (0xE0)
Формат : MPEG Video
Версия формата : Version 2
Профиль формата : Main@Main
Настройки формата : CustomMatrix / BVOP
Параметр BVOP формата : Да
Параметр матрицы формата : Выборочная
Параметр GOP формата : M=3, N=15
Продолжительность : 26 м. 55 с.
Вид битрейта : Переменный
Битрейт : 4897 Кбит/сек
Максимальный битрейт : 8100 Кбит/сек
Ширина : 720 пикселей
Высота : 576 пикселей
Соотношение сторон : 16:9
Частота кадров : 25,000 кадров/сек
Стандарт вещания : PAL
Цветовое пространство : YUV
Субдискретизация насыщенности : 4:2:0
Битовая глубина : 8 бит
Тип развёртки : Прогрессивная
Метод сжатия : С потерями
Бит/(Пиксели*Кадры) : 0.472
Временной код первого кадра : 00:23:15:24
Оригинал временного кода : Group of pictures header
Размер потока : 943 Мбайт (94%)
Аудио
Идентификатор : 189 (0xBD)-128 (0x80)
Формат : AC-3
Формат/Информация : Audio Coding 3
Коммерческое название : Dolby Digital
Режим смешивания : DVD-Video
Продолжительность : 26 м. 55 с.
Вид битрейта : Постоянный
Битрейт : 192 Кбит/сек
Каналы : 2 канала
Channel layout : L R
Частота : 48,0 КГц
Частота кадров : 31,250 кадров/сек (1536 SPF)
Битовая глубина : 16 бит
Метод сжатия : С потерями
Задержка видео : -296 мс.
Размер потока : 37,0 Мбайт (4%)
ServiceKind/String : Complete Main
Меню
Общее
Полное имя : I:\Фильмы\Сериалы\Next (2001-2003) 5XDVD9\(2001) Next. Следующий\VIDEO_TS\VTS_01_8.VOB
Формат : MPEG-PS
Размер файла : 32,1 Мбайт
Продолжительность : 1 м. 10 с.
Режим общего битрейта : Переменный
Общий поток : 3811 Кбит/сек
Видео
Идентификатор : 224 (0xE0)
Формат : MPEG Video
Версия формата : Version 2
Профиль формата : Main@Main
Настройки формата : CustomMatrix / BVOP
Параметр BVOP формата : Да
Параметр матрицы формата : Выборочная
Параметр GOP формата : M=3, N=15
Продолжительность : 1 м. 10 с.
Вид битрейта : Переменный
Битрейт : 3543 Кбит/сек
Максимальный битрейт : 8100 Кбит/сек
Ширина : 720 пикселей
Высота : 576 пикселей
Соотношение сторон : 16:9
Частота кадров : 25,000 кадров/сек
Стандарт вещания : PAL
Цветовое пространство : YUV
Субдискретизация насыщенности : 4:2:0
Битовая глубина : 8 бит
Тип развёртки : Прогрессивная
Метод сжатия : С потерями
Бит/(Пиксели*Кадры) : 0.342
Временной код первого кадра : 00:50:11:16
Оригинал временного кода : Group of pictures header
GOP, открыто/закрыто : Открыто
Размер потока : 29,8 Мбайт (93%)
Аудио
Идентификатор : 189 (0xBD)-128 (0x80)
Формат : AC-3
Формат/Информация : Audio Coding 3
Коммерческое название : Dolby Digital
Режим смешивания : DVD-Video
Продолжительность : 1 м. 10 с.
Вид битрейта : Постоянный
Битрейт : 192 Кбит/сек
Каналы : 2 канала
Channel layout : L R
Частота : 48,0 КГц
Частота кадров : 31,250 кадров/сек (1536 SPF)
Битовая глубина : 16 бит
Метод сжатия : С потерями
Задержка видео : -232 мс.
Размер потока : 1,61 Мбайт (5%)
ServiceKind/String : Complete Main
Меню
Общее
Полное имя : I:\Фильмы\Сериалы\Next (2001-2003) 5XDVD9\(2001) Next. Следующий\VIDEO_TS\VTS_02_0.BUP
Формат : DVD Video
Профиль формата : Program
Размер файла : 14,0 Кбайт
Продолжительность : 22 с. 80 мс.
Режим общего битрейта : Переменный
Общий поток : 5194 бит/сек
FileExtension_Invalid : ifo
Видео
Идентификатор : 224 (0xE0)
Формат : MPEG Video
Версия формата : Version 2
Продолжительность : 22 с. 80 мс.
Вид битрейта : Переменный
Ширина : 720 пикселей
Высота : 576 пикселей
Соотношение сторон : 16:9
Частота кадров : 25,000 кадров/сек
Стандарт вещания : PAL
Метод сжатия : С потерями
Аудио
Идентификатор : 128 (0x80)
Формат : AC-3
Формат/Информация : Audio Coding 3
Продолжительность : 22 с. 80 мс.
Каналы : 2 канала
Частота : 48,0 КГц
Метод сжатия : С потерями
Язык : English
Меню
Продолжительность : 22 с. 80 мс.
00:00:00.000 : Chapter 1
List (Audio) : 0
Общее
Полное имя : I:\Фильмы\Сериалы\Next (2001-2003) 5XDVD9\(2001) Next. Следующий\VIDEO_TS\VTS_02_0.IFO
Формат : DVD Video
Профиль формата : Program
Размер файла : 14,0 Кбайт
Продолжительность : 22 с. 80 мс.
Режим общего битрейта : Переменный
Общий поток : 5194 бит/сек
Видео
Идентификатор : 224 (0xE0)
Формат : MPEG Video
Версия формата : Version 2
Продолжительность : 22 с. 80 мс.
Вид битрейта : Переменный
Ширина : 720 пикселей
Высота : 576 пикселей
Соотношение сторон : 16:9
Частота кадров : 25,000 кадров/сек
Стандарт вещания : PAL
Метод сжатия : С потерями
Аудио
Идентификатор : 128 (0x80)
Формат : AC-3
Формат/Информация : Audio Coding 3
Продолжительность : 22 с. 80 мс.
Каналы : 2 канала
Частота : 48,0 КГц
Метод сжатия : С потерями
Язык : English
Меню
Продолжительность : 22 с. 80 мс.
00:00:00.000 : Chapter 1
List (Audio) : 0
Общее
Полное имя : I:\Фильмы\Сериалы\Next (2001-2003) 5XDVD9\(2001) Next. Следующий\VIDEO_TS\VTS_02_1.VOB
Формат : MPEG-PS
Размер файла : 5,50 Мбайт
Продолжительность : 22 с. 80 мс.
Режим общего битрейта : Переменный
Общий поток : 2088 Кбит/сек
Видео
Идентификатор : 224 (0xE0)
Формат : MPEG Video
Версия формата : Version 2
Профиль формата : Main@Main
Настройки формата : BVOP
Параметр BVOP формата : Да
Параметр матрицы формата : По умолчанию
Параметр GOP формата : M=2, N=12
Продолжительность : 22 с. 80 мс.
Вид битрейта : Переменный
Битрейт : 1855 Кбит/сек
Максимальный битрейт : 9200 Кбит/сек
Ширина : 720 пикселей
Высота : 576 пикселей
Соотношение сторон : 16:9
Частота кадров : 25,000 кадров/сек
Стандарт вещания : PAL
Цветовое пространство : YUV
Субдискретизация насыщенности : 4:2:0
Битовая глубина : 8 бит
Тип развёртки : Прогрессивная
Метод сжатия : С потерями
Бит/(Пиксели*Кадры) : 0.179
Временной код первого кадра : 00:00:00:00
Оригинал временного кода : Group of pictures header
GOP, открыто/закрыто : Открыто
Размер потока : 4,88 Мбайт (89%)
Аудио
Идентификатор : 189 (0xBD)-128 (0x80)
Формат : AC-3
Формат/Информация : Audio Coding 3
Коммерческое название : Dolby Digital
Режим смешивания : DVD-Video
Продолжительность : 21 с. 952 мс.
Вид битрейта : Постоянный
Битрейт : 192 Кбит/сек
Каналы : 2 канала
Channel layout : L R
Частота : 48,0 КГц
Частота кадров : 31,250 кадров/сек (1536 SPF)
Битовая глубина : 16 бит
Метод сжатия : С потерями
Размер потока : 515 Кбайт (9%)
ServiceKind/String : Complete Main
Меню
Общее
Полное имя : I:\Фильмы\Сериалы\Next (2001-2003) 5XDVD9\(2001) Next. Следующий\VIDEO_TS\VTS_03_0.BUP
Формат : DVD Video
Профиль формата : Program
Размер файла : 14,0 Кбайт
Продолжительность : 16 с. 440 мс.
Режим общего битрейта : Переменный
Общий поток : 6976 бит/сек
FileExtension_Invalid : ifo
Видео
Идентификатор : 224 (0xE0)
Формат : MPEG Video
Версия формата : Version 2
Продолжительность : 16 с. 440 мс.
Вид битрейта : Переменный
Ширина : 720 пикселей
Высота : 576 пикселей
Соотношение сторон : 16:9
Частота кадров : 25,000 кадров/сек
Стандарт вещания : PAL
Метод сжатия : С потерями
Аудио
Идентификатор : 128 (0x80)
Формат : AC-3
Формат/Информация : Audio Coding 3
Продолжительность : 16 с. 440 мс.
Каналы : 2 канала
Частота : 48,0 КГц
Метод сжатия : С потерями
Язык : English
Меню
Продолжительность : 16 с. 440 мс.
00:00:00.000 : Chapter 1
List (Audio) : 0
Общее
Полное имя : I:\Фильмы\Сериалы\Next (2001-2003) 5XDVD9\(2001) Next. Следующий\VIDEO_TS\VTS_03_0.IFO
Формат : DVD Video
Профиль формата : Program
Размер файла : 14,0 Кбайт
Продолжительность : 16 с. 440 мс.
Режим общего битрейта : Переменный
Общий поток : 6976 бит/сек
Видео
Идентификатор : 224 (0xE0)
Формат : MPEG Video
Версия формата : Version 2
Продолжительность : 16 с. 440 мс.
Вид битрейта : Переменный
Ширина : 720 пикселей
Высота : 576 пикселей
Соотношение сторон : 16:9
Частота кадров : 25,000 кадров/сек
Стандарт вещания : PAL
Метод сжатия : С потерями
Аудио
Идентификатор : 128 (0x80)
Формат : AC-3
Формат/Информация : Audio Coding 3
Продолжительность : 16 с. 440 мс.
Каналы : 2 канала
Частота : 48,0 КГц
Метод сжатия : С потерями
Язык : English
Меню
Продолжительность : 16 с. 440 мс.
00:00:00.000 : Chapter 1
List (Audio) : 0
Общее
Полное имя : I:\Фильмы\Сериалы\Next (2001-2003) 5XDVD9\(2001) Next. Следующий\VIDEO_TS\VTS_03_1.VOB
Формат : MPEG-PS
Размер файла : 8,94 Мбайт
Продолжительность : 16 с. 440 мс.
Режим общего битрейта : Переменный
Общий поток : 4561 Кбит/сек
Видео
Идентификатор : 224 (0xE0)
Формат : MPEG Video
Версия формата : Version 2
Профиль формата : Main@Main
Настройки формата : BVOP
Параметр BVOP формата : Да
Параметр матрицы формата : По умолчанию
Параметр GOP формата : M=2, N=12
Продолжительность : 16 с. 440 мс.
Вид битрейта : Переменный
Битрейт : 4279 Кбит/сек
Максимальный битрейт : 9200 Кбит/сек
Ширина : 720 пикселей
Высота : 576 пикселей
Соотношение сторон : 16:9
Частота кадров : 25,000 кадров/сек
Стандарт вещания : PAL
Цветовое пространство : YUV
Субдискретизация насыщенности : 4:2:0
Битовая глубина : 8 бит
Тип развёртки : Прогрессивная
Метод сжатия : С потерями
Бит/(Пиксели*Кадры) : 0.413
Временной код первого кадра : 00:00:00:00
Оригинал временного кода : Group of pictures header
GOP, открыто/закрыто : Открыто
Размер потока : 8,39 Мбайт (94%)
Аудио
Идентификатор : 189 (0xBD)-128 (0x80)
Формат : AC-3
Формат/Информация : Audio Coding 3
Коммерческое название : Dolby Digital
Режим смешивания : DVD-Video
Продолжительность : 16 с. 320 мс.
Вид битрейта : Постоянный
Битрейт : 192 Кбит/сек
Каналы : 2 канала
Channel layout : L R
Частота : 48,0 КГц
Частота кадров : 31,250 кадров/сек (1536 SPF)
Битовая глубина : 16 бит
Метод сжатия : С потерями
Размер потока : 383 Кбайт (4%)
ServiceKind/String : Complete Main
Меню
Общее
Полное имя : I:\Фильмы\Сериалы\Next (2001-2003) 5XDVD9\(2001) Next. Следующий\VIDEO_TS\VTS_04_0.BUP
Формат : DVD Video
Профиль формата : Program
Размер файла : 14,0 Кбайт
Продолжительность : 1 м. 25 с.
Режим общего битрейта : Переменный
Общий поток : 1339 бит/сек
FileExtension_Invalid : ifo
Видео
Идентификатор : 224 (0xE0)
Формат : MPEG Video
Версия формата : Version 2
Продолжительность : 1 м. 25 с.
Вид битрейта : Переменный
Ширина : 720 пикселей
Высота : 576 пикселей
Соотношение сторон : 16:9
Частота кадров : 25,000 кадров/сек
Стандарт вещания : PAL
Метод сжатия : С потерями
Аудио
Идентификатор : 128 (0x80)
Формат : AC-3
Формат/Информация : Audio Coding 3
Продолжительность : 1 м. 25 с.
Каналы : 2 канала
Частота : 48,0 КГц
Метод сжатия : С потерями
Язык : English
Меню
Продолжительность : 1 м. 25 с.
00:00:00.000 : Chapter 1
List (Audio) : 0
Общее
Полное имя : I:\Фильмы\Сериалы\Next (2001-2003) 5XDVD9\(2001) Next. Следующий\VIDEO_TS\VTS_04_0.IFO
Формат : DVD Video
Профиль формата : Program
Размер файла : 14,0 Кбайт
Продолжительность : 1 м. 25 с.
Режим общего битрейта : Переменный
Общий поток : 1339 бит/сек
Видео
Идентификатор : 224 (0xE0)
Формат : MPEG Video
Версия формата : Version 2
Продолжительность : 1 м. 25 с.
Вид битрейта : Переменный
Ширина : 720 пикселей
Высота : 576 пикселей
Соотношение сторон : 16:9
Частота кадров : 25,000 кадров/сек
Стандарт вещания : PAL
Метод сжатия : С потерями
Аудио
Идентификатор : 128 (0x80)
Формат : AC-3
Формат/Информация : Audio Coding 3
Продолжительность : 1 м. 25 с.
Каналы : 2 канала
Частота : 48,0 КГц
Метод сжатия : С потерями
Язык : English
Меню
Продолжительность : 1 м. 25 с.
00:00:00.000 : Chapter 1
List (Audio) : 0
Общее
Полное имя : I:\Фильмы\Сериалы\Next (2001-2003) 5XDVD9\(2001) Next. Следующий\VIDEO_TS\VTS_04_1.VOB
Формат : MPEG-PS
Размер файла : 43,4 Мбайт
Продолжительность : 1 м. 25 с.
Режим общего битрейта : Переменный
Общий поток : 4253 Кбит/сек
Видео
Идентификатор : 224 (0xE0)
Формат : MPEG Video
Версия формата : Version 2
Профиль формата : Main@Main
Настройки формата : BVOP
Параметр BVOP формата : Да
Параметр матрицы формата : По умолчанию
Параметр GOP формата : M=4, N=12
Продолжительность : 1 м. 25 с.
Вид битрейта : Переменный
Битрейт : 3977 Кбит/сек
Максимальный битрейт : 9200 Кбит/сек
Ширина : 720 пикселей
Высота : 576 пикселей
Соотношение сторон : 16:9
Частота кадров : 25,000 кадров/сек
Стандарт вещания : PAL
Цветовое пространство : YUV
Субдискретизация насыщенности : 4:2:0
Битовая глубина : 8 бит
Тип развёртки : Прогрессивная
Метод сжатия : С потерями
Бит/(Пиксели*Кадры) : 0.384
Временной код первого кадра : 00:00:00:00
Оригинал временного кода : Group of pictures header
GOP, открыто/закрыто : Открыто
Размер потока : 40,6 Мбайт (93%)
Аудио
Идентификатор : 189 (0xBD)-128 (0x80)
Формат : AC-3
Формат/Информация : Audio Coding 3
Коммерческое название : Dolby Digital
Режим смешивания : DVD-Video
Продолжительность : 1 м. 25 с.
Вид битрейта : Постоянный
Битрейт : 192 Кбит/сек
Каналы : 2 канала
Channel layout : L R
Частота : 48,0 КГц
Частота кадров : 31,250 кадров/сек (1536 SPF)
Битовая глубина : 16 бит
Метод сжатия : С потерями
Размер потока : 1,96 Мбайт (5%)
ServiceKind/String : Complete Main
Меню

DVDInfo

(2001) Next. Следующий

Title: (2001) Next. Следующий
Size: 6.94 Gb ( 7 282 196,00 KBytes ) - DVD-9
Enabled regions: 1, 2, 3, 4, 5, 6, 7, 8
VTS_01 :
Play Length: 00:48:53+00:48:42+00:52:04+00:51:22
Video: PAL 16:9 (720x576) VBR, Auto Letterboxed
Audio:
English, AC3, 2/0 (L,R) ch, 192 kbps, Delay 0 mSec
VTS_02 :
Play Length: 00:00:22
Video: PAL 16:9 (720x576) VBR, Auto Letterboxed
Audio:
English (Dolby AC3, 2 ch)
VTS_03 :
Play Length: 00:00:16
Video: PAL 16:9 (720x576) VBR, Auto Letterboxed
Audio:
English (Dolby AC3, 2 ch)
VTS_04 :
Play Length: 00:01:25
Video: PAL 16:9 (720x576) VBR, Auto Letterboxed
Audio:
English (Dolby AC3, 2 ch)
* Menus Information *
VIDEO_TS Menu
Video:
PAL 4:3 (720x576) VBR
English Language Unit :
Title Menu
VTS_01 Menu
Video:
PAL 16:9 (720x576) VBR
Auto Letterboxed
Audio:
Not specified (Dolby AC3, 2 ch)
English Language Unit :
Root Menu
VTS_02 Menu
Video:
NTSC 4:3 (720x480) VBR
Auto Pan&Scan, Auto Letterboxed
English Language Unit :
Root Menu
VTS_03 Menu
Video:
NTSC 4:3 (720x480) VBR
Auto Pan&Scan, Auto Letterboxed
English Language Unit :
Root Menu
VTS_04 Menu
Video:
NTSC 4:3 (720x480) VBR
Auto Pan&Scan, Auto Letterboxed
English Language Unit :
Root Menu

Next 2 (1-6 серии) DVD9

Title: Next 2 (1-6 серии) DVD9
Size: 7.15 Gb ( 7 493 102,00 KBytes ) - DVD-9
Enabled regions: 1, 2, 3, 4, 5, 6, 7, 8
VTS_01 :
Play Length: 00:00:06+00:00:10+00:00:00+00:00:19+00:45:11+00:00:18+00:44:57+00:00:18+00:46:16+00:00:18+00:46:12+00:00:06+00:48:58+{00:00:19}+00:46:53+00:00:00
Video: PAL 4:3 (720x576) VBR
Audio:
Russian, AC3, 2/0 (L,R) ch, 256 kbps, Delay 0 mSec
* Menus Information *
VIDEO_TS Menu
Video:
NTSC 4:3 (720x480) VBR
Auto Pan&Scan, Auto Letterboxed
Language Unit :
VTS_01 Menu
Video:
PAL 4:3 (720x576) VBR
Audio:
Not specified (Dolby AC3, 2 ch)
Russian Language Unit :
Root Menu
Chapter (PTT) Menu

Next 2 (7-12 серии) DVD9

Title: Next 2 (7-12 серии) DVD9
Size: 7.12 Gb ( 7 470 536,00 KBytes ) - DVD-9
Enabled regions: 1, 2, 3, 4, 5, 6, 7, 8
VTS_01 :
Play Length: 00:00:06+00:00:10+00:00:00+00:00:19+00:45:51+00:00:18+00:49:09+00:00:18+00:45:42+00:00:18+00:46:19+00:00:06+00:45:21+{00:00:19}+00:45:13+00:00:00
Video: PAL 4:3 (720x576) VBR
Audio:
Russian, AC3, 2/0 (L,R) ch, 256 kbps, Delay 0 mSec
* Menus Information *
VIDEO_TS Menu
Video:
NTSC 4:3 (720x480) VBR
Auto Pan&Scan, Auto Letterboxed
Language Unit :
VTS_01 Menu
Video:
PAL 4:3 (720x576) VBR
Audio:
Not specified (Dolby AC3, 2 ch)
Russian Language Unit :
Root Menu
Chapter (PTT) Menu

Next 3 (1-8 серии) DVD9

Title: Next 3 (1-8 серии) DVD9
Size: 7.93 Gb ( 8 318 974,00 KBytes ) - DVD-9
Enabled regions: 1, 2, 3, 4, 5, 6, 7, 8
VTS_01 :
Play Length: 00:00:06+00:00:10+00:48:06+00:49:54+00:49:21+00:47:27+00:00:19+00:00:18+00:00:18+00:00:18+00:00:06+00:00:19+00:00:18+00:00:18+00:48:20+00:48:35+00:46:49+00:47:34
Video: PAL 4:3 (720x576) VBR, Letterboxed
Audio:
Russian, AC3, 2/0 (L,R) ch, 256 kbps, Delay 0 mSec
* Menus Information *
VIDEO_TS Menu
Video:
PAL 4:3 (720x576) VBR
Letterboxed
English Language Unit :
Title Menu
VTS_01 Menu
Video:
PAL 4:3 (720x576) VBR
Audio:
Not specified (Dolby AC3, 2 ch)
English Language Unit :
Root Menu

Next 3 (9-16 серии) DVD9

Title: Next 3 (9-16 серии) DVD9
Size: 7.93 Gb ( 8 318 976,00 KBytes ) - DVD-9
Enabled regions: 1, 2, 3, 4, 5, 6, 7, 8
VTS_01 :
Play Length: 00:00:06+00:00:10+00:47:42+00:48:15+00:47:54+00:48:09+00:00:19+00:00:18+00:00:18+00:00:18+00:00:06+00:00:19+00:00:18+00:00:18+00:47:46+00:47:47+00:47:20+00:49:43
Video: PAL 4:3 (720x576) VBR, Letterboxed
Audio:
Russian, AC3, 2/0 (L,R) ch, 256 kbps, Delay 0 mSec
* Menus Information *
VIDEO_TS Menu
Video:
PAL 4:3 (720x576) VBR
Letterboxed
English Language Unit :
Title Menu
VTS_01 Menu
Video:
PAL 4:3 (720x576) VBR
Audio:
Not specified (Dolby AC3, 2 ch)
English Language Unit :
Root Menu

Скриншоты меню

-Предыдущие и альтернативные раздачи
Скачать

Скачать бесплатно и на максимальной скорости!

Как скачивать? · Что такое торрент? · Рейтинг и ограничения




Вы не можете начинать темы
Вы не можете отвечать на сообщения
Вы не можете редактировать свои сообщения
Вы не можете удалять свои сообщения
Вы не можете голосовать в опросах
Вы не можете прикреплять файлы к сообщениям
Вы не можете скачивать файлы