Пёс / Сезон: 4 / Серии: 1-11 из 24 (Николай Каптан, Сергей Терещук) [2018, детектив, криминал, WEBRip]


by Boris G ®
23-Dec-2018 15:25

[Quote]

Пёс / Сезон: 4 / Серии: 1-11 из 24 (Николай Каптан, Сергей Терещук) [2018, детектив, криминал, WEBRip]

Пёс 4
Год выпуска: 2018
Производство: ООО «Универсал продакшн»
Жанр: детектив, криминал
Продолжительность: ~00:52:00 серия
Субтитры: нет
Режиссёр: Николай Каптан, Сергей Терещук
В ролях: Никита Панфилов, Михаил Жонин, Андрей Саминин, Денис Роднянский, Ольга Олексий, Ольга Морозова
Описание: В новом сезоне Максим Максимов продолжит раскрывать преступления вместе с немецкой овчаркой по кличке Пёс. Очередные приключения друзей начнутся с того, что в витрину кафе, в котором сидит Макс, въедет горящий автомобиль, у водителя которого нет головы. Подозреваемый в убийстве окажется быстро задержан с множеством улик, но Максимов будет уверен, что пойман не тот человек. Макса отстранят от расследования, но предложат стать «адвокатом» подозреваемого, и доказать его невиновность. Так Максимову предстоит провести расследование в непривычной для себя роли.

Реклама: Нет.
Кинопоиск
Все раздачи сериала
Sample
Качество: WEBRip - Files-x
Формат: AVI
Видео кодек: XviD
Аудио кодек: AC3
Видео: 720x400 (1.80:1), 25 fps, XviD ~1650 kbps avg, 0.230 bit/pixel
Аудио: 48.0 kHz, AC3 Dolby Digital, 2/0 (L,R) ch, ~ 192 kbps

Внимание! Раздача ведётся путём добавления новых серий

Раздача ведётся путём добавления новых серий, при каждом добавлении создаётся новый торрент. Чтобы начать докачку новой серии, пользователям необходимо сделать следующее:
- Остановить скачивание.
- Удалить старый торрент у себя из клиента (старые серии удалять не надо).
- Скачать новый торрент и запустить его у себя в клиенте вместо старого, при этом указать клиенту путь в старую папку куда и должно происходить скачивание новых серий.
Ваш клиент при этом должен произвести хеширование (проверку) старой папки (если не производит сам - помогите ему сделать это), и будет докачивать только те серии которых у вас ещё нет. Старые серии при этом не удаляются, а продолжают раздаваться!
Если вы уже удалили старые серии, то предотвратить повторную закачку старых серий можно, отжав галочку в соответствующих местах при запуске нового торрента. По возможности, желательно не удалять старые серии как можно дольше, чтобы релизер не столько продолжал раздавать старые серии, а смог сконцентрироваться на новых.

MI

General
Complete name : D:\сериалы сид\Pes .4. (2018)\Pes.s04.e01.WEB-DLRip.Files-x.avi
Format : AVI
Format/Info : Audio Video Interleave
File size : 700 MiB
Duration : 52 min 0 s
Overall bit rate : 1 883 kb/s
Writing application : VirtualDubMod 1.5.10.3 | www.virtualdub-fr.org || (build 2550/release)
Writing library : VirtualDubMod build 2550/release
Video
ID : 0
Format : MPEG-4 Visual
Format profile : Advanced Simple@L5
Format settings : BVOP1 / Custom Matrix
Format settings, BVOP : 1
Format settings, QPel : No
Format settings, GMC : No warppoints
Format settings, Matrix : Custom
Codec ID : XVID
Codec ID/Hint : XviD
Duration : 52 min 0 s
Bit rate : 1 681 kb/s
Width : 720 pixels
Height : 400 pixels
Display aspect ratio : 16:9
Frame rate : 25.000 FPS
Color space : YUV
Chroma subsampling : 4:2:0
Bit depth : 8 bits
Scan type : Progressive
Compression mode : Lossy
Bits/(Pixel*Frame) : 0.233
Stream size : 625 MiB (89%)
Writing library : XviD 73
Audio
ID : 1
Format : AC-3
Format/Info : Audio Coding 3
Codec ID : 2000
Duration : 52 min 0 s
Bit rate mode : Constant
Bit rate : 192 kb/s
Channel(s) : 2 channels
Channel positions : Front: L R
Sampling rate : 48.0 kHz
Frame rate : 31.250 FPS (1536 SPF)
Bit depth : 16 bits
Compression mode : Lossy
Stream size : 71.4 MiB (10%)
Alignment : Split accross interleaves
Interleave, duration : 40 ms (1.00 video frame)
Interleave, preload duratio : 500 ms
Service kind : Complete Main

Скриншоты


Download

Download free and at maximum speed!

How to Download? · What is a torrent? · Ratings and Limitations




You cannot post new topics in this forum
You cannot reply to topics in this forum
You cannot edit your posts in this forum
You cannot delete your posts in this forum
You cannot vote in polls in this forum
You cannot attach files in this forum
You cannot download files in this forum