Оборванная мелодия / Сезон: 1 / Серии: 1-4 из 4 (Руслан Паушу) [2018, детектив, мелодрама, SATRip]


by Boris G ®
23-Dec-2018 15:25

[Quote]

Оборванная мелодия / Сезон: 1 / Серии: 1-4 из 4 (Руслан Паушу) [2018, детектив, мелодрама, SATRip]

Оборванная мелодия
Год выпуска: 2018
Производство: Россия Киностудия ФУ-24
Жанр: детектив, мелодрама
Продолжительность: 00.44.00
Субтитры: нет
Режиссёр: Руслан Паушу
В ролях: Александра Никифорова, Милан Марич, Жанна Эппле, Сергей Астахов, Владимир Гуськов , Сергей Ланбамин, Сергей Виноградов, Елена Гольянова, Виталий Егоров, Джулиано Ди Капуа, Олег Каменщиков, Алёна Мордовина, Ольга Виниченко
Описание: В жизни одного из лучших криминальных репортёров Елены случается самое страшное преступление — при загадочных обстоятельствах умирает её мать. В один день привычный мир Елены рушится. Она понимает, что совсем не знала свою семью — у погибшей матери обнаружился любовник-итальянец Донато, с которым у неё были отношения 30 лет назад, а отец становится главным подозреваемым в убийстве. Елена не верит в виновность отца и решает начать своё собственное расследование, в паре с сыном Донато Антонио. Вместе герои начинают расследование. И каждый новый шаг в расследовании открывает им неожиданные семейные тайны.
[box=red,green]Реклама отсутствует[/box]-Сэмпл: https://www.sendspace.com/file/l5dowp
Качество: SATRip
Формат: AVI
Видео кодек: XviD
Аудио кодек: AC3
Видео: XVID; 1695 Кбит/сек; 720х400 (16:9); 25,000 кадров/сек; Бит/(Пиксели*Кадры): 0.235
Аудио: AC-3; 192 Кбит/сек; 2 канала; 48,0 КГц

MI

Общее
Полное имя : D:\закачки\Оборванная мелодия.2018.SATRip.by.Nicodem.Files-x\02.Оборванная мелодия.2018.SATRip.by.Nicodem.Files-x.avi
Формат : AVI
Формат/Информация : Audio Video Interleave
Размер файла : 598 Мбайт
Продолжительность : 44 м. 4 с.
Общий поток : 1896 Кбит/сек
Программа кодирования : VirtualDubMod 1.5.10.3 | www.virtualdub-fr.org || (build 2550/release)
Библиотека кодирования : VirtualDubMod build 2550/release
Видео
Идентификатор : 0
Формат : MPEG-4 Visual
Профиль формата : Advanced Simple@L5
Настройки формата : BVOP1 / Custom Matrix
Параметр BVOP формата : 1
Параметр QPel формата : Нет
Параметр GMC формата : Без точки перехода
Параметр матрицы формата : Выборочная
Идентификатор кодека : XVID
Идентификатор кодека/Подсказка : XviD
Продолжительность : 44 м. 4 с.
Битрейт : 1695 Кбит/сек
Ширина : 720 пикселей
Высота : 400 пикселей
Соотношение сторон : 16:9
Частота кадров : 25,000 кадров/сек
Цветовое пространство : YUV
Субдискретизация насыщенности : 4:2:0
Битовая глубина : 8 бит
Тип развёртки : Прогрессивная
Метод сжатия : С потерями
Бит/(Пиксели*Кадры) : 0.235
Размер потока : 534 Мбайт (89%)
Библиотека кодирования : XviD 73
Аудио
Идентификатор : 1
Формат : AC-3
Формат/Информация : Audio Coding 3
Идентификатор кодека : 2000
Продолжительность : 44 м. 4 с.
Вид битрейта : Постоянный
Битрейт : 192 Кбит/сек
Каналы : 2 канала
Расположение каналов : Front: L R
Частота : 48,0 КГц
Частота кадров : 31,250 кадров/сек (1536 SPF)
Битовая глубина : 16 бит
Метод сжатия : С потерями
Размер потока : 60,5 Мбайт (10%)
Выравнивание : Разделение по промежуткам
Продолжительность промежутка : 40 мс. (1,00 видеокадр)
Время предзагрузки промежутка : 500 мс.
ServiceKind/String : Complete Main

Скриншоты

Предыдущие и альтернативные раздачи
Релиз-группы
Download

Download free and at maximum speed!

How to Download? · What is a torrent? · Ratings and Limitations




You cannot post new topics in this forum
You cannot reply to topics in this forum
You cannot edit your posts in this forum
You cannot delete your posts in this forum
You cannot vote in polls in this forum
You cannot attach files in this forum
You cannot download files in this forum