Норвег (Расширенная ТВ-версия) / Серии: 1-4 из 4 (Алена Званцова) [2015, комедия, HDTVRip]


by Boris G ®
23-Dec-2018 15:25

[Quote]

Норвег (Расширенная ТВ-версия) / Серии: 1-4 из 4 (Алена Званцова) [2015, комедия, HDTVRip]

Норвег
Год выпуска: 2015
Производство: Марс Медиа Энтертейнмент
Жанр: комедия
Продолжительность: ~00:40:00 серия
Субтитры: нет
Режиссёр: Алена Званцова
В ролях: Евгений Миронов, Северия Янушаускайте, Ксения Раппопорт, Дмитрий Марьянов, Витас Эйзенах, Анна Геллер, Гэ Ян, Ольга Мукукенова, Александр Новин, Роза Хайруллина, Сабина Ахмедова, Игорь Гордин, Андрей Носков, Виталий Коваленко, Дмитрий Поднозов, Евгений Антропов, Сергей Бызгу, Мээрикан Мирзалиева, Ализа Абдиева, Райхон Джуманиязова, Егор Рембетти

Описание: Как снег на голову москвича Кириллова сваливается руководство клининговым агентством «Настенька», состоящим целиком из мигранток-азиаток. Ситуация осложняется тем, что Кириллов планирует уехать в Норвегию и ждет в гости невесту — типичную европейку с весьма жесткими понятиями о свободе и толерантности. Мысль о том, что она узнает об эксплуатации «женщин Востока» приводит его в ужас и заставляет всячески изворачиваться, скрывая «гарем»…
Реклама: Нет.

Все раздачи сериала
Sample
Качество: HDTVRip
Формат: AVI
Видео кодек: XviD
Аудио кодек: AC3
Видео: 720x400 (1.80:1), 25 fps, XviD build 73 ~1700 kbps avg, 0.235 bit/pixel
Аудио: 48.0 kHz, AC3 Dolby Digital, 2/0 (L,R) ch, ~ 192 kbps

MI

General
Complete name : D:\Норвег 2015\01.Норвег 2015.avi
Format : AVI
Format/Info : Audio Video Interleave
File size : 1.08 GiB
Duration : 1 h 21 min
Overall bit rate : 1 896 kb/s
Writing application : VirtualDubMod 1.5.10.3 | www.virtualdub-fr.org || (build 2550/release)
Writing library : VirtualDubMod build 2550/release
Video
ID : 0
Format : MPEG-4 Visual
Format profile : Advanced Simple@L5
Format settings : BVOP1
Format settings, BVOP : 1
Format settings, QPel : No
Format settings, GMC : No warppoints
Format settings, Matrix : Default (MPEG)
Codec ID : XVID
Codec ID/Hint : XviD
Duration : 1 h 21 min
Bit rate : 1 694 kb/s
Width : 720 pixels
Height : 400 pixels
Display aspect ratio : 16:9
Frame rate : 25.000 FPS
Color space : YUV
Chroma subsampling : 4:2:0
Bit depth : 8 bits
Scan type : Progressive
Compression mode : Lossy
Bits/(Pixel*Frame) : 0.235
Stream size : 985 MiB (89%)
Writing library : XviD 73
Audio
ID : 1
Format : AC-3
Format/Info : Audio Coding 3
Codec ID : 2000
Duration : 1 h 21 min
Bit rate mode : Constant
Bit rate : 192 kb/s
Channel(s) : 2 channels
Channel positions : Front: L R
Sampling rate : 48.0 kHz
Frame rate : 31.250 FPS (1536 SPF)
Bit depth : 16 bits
Compression mode : Lossy
Stream size : 112 MiB (10%)
Alignment : Split accross interleaves
Interleave, duration : 40 ms (1.00 video frame)
Interleave, preload duratio : 500 ms
Service kind : Complete Main

Скриншоты


Download

Download free and at maximum speed!

How to Download? · What is a torrent? · Ratings and Limitations




You cannot post new topics in this forum
You cannot reply to topics in this forum
You cannot edit your posts in this forum
You cannot delete your posts in this forum
You cannot vote in polls in this forum
You cannot attach files in this forum
You cannot download files in this forum