Норвег (Расширенная ТВ-версия) / Серии: 1-4 из 4 (Алена Званцова) [2015, комедия, HDTV 1080i]


by Boris G ®
23-Дек-2018 15:25

[Цитировать]

Норвег (Расширенная ТВ-версия) / Серии: 1-4 из 4 (Алена Званцова) [2015, комедия, HDTV 1080i]

Норвег
Год выпуска: 2015
Производство: Марс Медиа Энтертейнмент
Жанр: комедия
Продолжительность: ~00:40:00 серия
Субтитры: нет
Режиссёр: Алена Званцова
В ролях: Евгений Миронов, Северия Янушаускайте, Ксения Раппопорт, Дмитрий Марьянов, Витас Эйзенах, Анна Геллер, Гэ Ян, Ольга Мукукенова, Александр Новин, Роза Хайруллина, Сабина Ахмедова, Игорь Гордин, Андрей Носков, Виталий Коваленко, Дмитрий Поднозов, Евгений Антропов, Сергей Бызгу, Мээрикан Мирзалиева, Ализа Абдиева, Райхон Джуманиязова, Егор Рембетти

Описание: Как снег на голову москвича Кириллова сваливается руководство клининговым агентством «Настенька», состоящим целиком из мигранток-азиаток. Ситуация осложняется тем, что Кириллов планирует уехать в Норвегию и ждет в гости невесту — типичную европейку с весьма жесткими понятиями о свободе и толерантности. Мысль о том, что она узнает об эксплуатации «женщин Востока» приводит его в ужас и заставляет всячески изворачиваться, скрывая «гарем»…
Реклама: Нет.

Все раздачи сериала
Sample
Качество: HDTV 1080i - daboen
Формат: TS
Видео кодек: AVC
Аудио кодек: AC3, MP2
Видео: MPEG4 AVC Video, H264, 16:9, 1920x1080, 25 fps, ~7100 kbps, 0.137 bit/pixel
Аудио: AC3, 6 ch, 384 kbps, 16 bits, 48.0 KHz
Аудио 2: MP2, 2 ch, 192 kbps, 16 bits, 48.0 KHz

MI

General
ID : 1 (0x1)
Complete name : D:\Norveg.2015.HDTV.1080i\Norveg.01.2015.HDTV.1080i.ts
Format : MPEG-TS
File size : 4.59 GiB
Duration : 1 h 21 min
Overall bit rate mode : Variable
Overall bit rate : 8 082 kb/s
Video
ID : 2931 (0xB73)
Menu ID : 1079 (0x437)
Format : AVC
Format/Info : Advanced Video Codec
Format profile : High@L4
Format settings : CABAC / 4 Ref Frames
Format settings, CABAC : Yes
Format settings, ReFrames : 4 frames
Codec ID : 27
Duration : 1 h 21 min
Bit rate : 7 101 kb/s
Width : 1 920 pixels
Height : 1 080 pixels
Display aspect ratio : 16:9
Frame rate : 25.000 FPS
Color space : YUV
Chroma subsampling : 4:2:0
Bit depth : 8 bits
Scan type : MBAFF
Scan type, store method : Interleaved fields
Scan order : Top Field First
Bits/(Pixel*Frame) : 0.137
Stream size : 4.03 GiB (88%)
Audio #1
ID : 2913 (0xB61)
Menu ID : 1079 (0x437)
Format : AC-3
Format/Info : Audio Coding 3
Codec ID : 6
Duration : 1 h 21 min
Bit rate mode : Constant
Bit rate : 384 kb/s
Channel(s) : 6 channels
Channel positions : Front: L C R, Side: L R, LFE
Sampling rate : 48.0 kHz
Frame rate : 31.250 FPS (1536 SPF)
Bit depth : 16 bits
Compression mode : Lossy
Delay relative to video : -120 ms
Stream size : 223 MiB (5%)
Language : Russian
Service kind : Complete Main
Audio #2
ID : 2932 (0xB74)
Menu ID : 1079 (0x437)
Format : MPEG Audio
Format version : Version 1
Format profile : Layer 2
Format settings : Joint stereo / Intensity Stereo + MS Stereo
Codec ID : 3
Duration : 1 h 21 min
Bit rate mode : Constant
Bit rate : 192 kb/s
Channel(s) : 2 channels
Sampling rate : 48.0 kHz
Frame rate : 41.667 FPS (1152 SPF)
Compression mode : Lossy
Delay relative to video : -120 ms
Stream size : 112 MiB (2%)
Language : Russian

Скриншоты


Скачать

Скачать бесплатно и на максимальной скорости!

Как скачивать? · Что такое торрент? · Рейтинг и ограничения




Вы не можете начинать темы
Вы не можете отвечать на сообщения
Вы не можете редактировать свои сообщения
Вы не можете удалять свои сообщения
Вы не можете голосовать в опросах
Вы не можете прикреплять файлы к сообщениям
Вы не можете скачивать файлы