Нарисованное счастье / Серии: 1-4 из 4 (Игорь Мужжухин) [2018, мелодрама, WEBRip 1080p]


by Boris G ®
23-Dec-2018 15:25

[Quote]

Нарисованное счастье / Серии: 1-4 из 4 (Игорь Мужжухин) [2018, мелодрама, WEBRip 1080p]

Нарисованное счастье
Год выпуска: 2018
Производство: Кинокомпания «Русское»
Жанр: мелодрама
Продолжительность: ~00:45:00 серия
Субтитры: нет
Режиссёр: Игорь Мужжухин
В ролях: Ольга Павловец, Юрий Батурин, Анастасия Стежко, Кирилл Гребенщиков, Дмитрий Муляр, Екатерина Травова, Диана Енакаева, Павел Усачев

Описание: Двадцатилетняя годовщина брака неожиданно оборачивается настоящим кошмаром для Леры. Тайные похождения ее мужа Антона вскрываются и рушат семью. Но вместо того, чтобы страдать о разбитой судьбе, Лера собирает волю в кулак и решает во что бы то ни стало жить дальше. Она выходит на работу в офис и начинает активную жизнь. Подруга знакомит Леру со своим коллегой врачом Георгием. Вскоре Георгий и Лера понимают, что созданы друг для друга. Но все не так просто…

Реклама: Нет.
Кинопоиск
Все раздачи сериала
Sample
Качество: WEBRip 1080p - Алехаndr
Формат: MKV
Видео кодек: H.264
Аудио кодек: AC3
Видео: MPEG4 AVC Video, H264, 16:9, 1920x1080, 25 fps, ~2550 kbps, 0.049 bit/pixel
Аудио: AC3 Dolby Digital, 48.0 kHz, 2/0 (L,R) ch, 192 kbps

MI

General
Unique ID : 282851708307673282500370034683468004536 (0xD4CB41EA8ADB7E2129543EE52B3F3CB8)
Complete name : D:\Нарисованное счастье (2018).by.Алехаndr\Серия 1.by.Алехаndr.mkv
Format : Matroska
Format version : Version 4 / Version 2
File size : 1.74 GiB
Duration : 1 h 30 min
Overall bit rate : 2 739 kb/s
Encoded date : UTC 2018-10-21 06:48:58
Writing application : mkvmerge v28.0.0 ('Voice In My Head') 64-bit
Writing library : libebml v1.3.6 + libmatroska v1.4.9 / Lavf57.71.100
Video
ID : 1
Format : AVC
Format/Info : Advanced Video Codec
Format profile : High@L4
Format settings : CABAC / 2 Ref Frames
Format settings, CABAC : Yes
Format settings, ReFrames : 2 frames
Codec ID : V_MPEG4/ISO/AVC
Duration : 1 h 30 min
Bit rate : 2 545 kb/s
Width : 1 920 pixels
Height : 1 080 pixels
Display aspect ratio : 16:9
Frame rate mode : Constant
Frame rate : 25.000 FPS
Color space : YUV
Chroma subsampling : 4:2:0
Bit depth : 8 bits
Scan type : Progressive
Bits/(Pixel*Frame) : 0.049
Stream size : 1.61 GiB (93%)
Default : Yes
Forced : No
Color range : Limited
Color primaries : BT.709
Transfer characteristics : BT.709
Matrix coefficients : BT.709
Audio
ID : 2
Format : AC-3
Format/Info : Audio Coding 3
Codec ID : A_AC3
Duration : 1 h 30 min
Bit rate mode : Constant
Bit rate : 192 kb/s
Channel(s) : 2 channels
Channel positions : Front: L R
Sampling rate : 48.0 kHz
Frame rate : 31.250 FPS (1536 SPF)
Bit depth : 16 bits
Compression mode : Lossy
Stream size : 125 MiB (7%)
Language : English
Service kind : Complete Main
Default : Yes
Forced : No

Скриншоты


Download

Download free and at maximum speed!

How to Download? · What is a torrent? · Ratings and Limitations




You cannot post new topics in this forum
You cannot reply to topics in this forum
You cannot edit your posts in this forum
You cannot delete your posts in this forum
You cannot vote in polls in this forum
You cannot attach files in this forum
You cannot download files in this forum