Пять лет спустя / Серии: 1-4 из 4 (Наталья Углицких) [2018, мелодрама, WEBRip]


by Boris G ®
23-Дек-2018 15:25

[Цитировать]

Пять лет спустя / Серии: 1-4 из 4 (Наталья Углицких) [2018, мелодрама, WEBRip]

Пять лет спустя
Год выпуска: 2018
Производство: Профи
Жанр: мелодрама
Продолжительность: ~00:47:00 серия
Субтитры: нет
Режиссёр: Наталья Углицких
В ролях: Марина Денисова, Александр Рагулин, Тимофей Каратаев, Ирина Уханова

Описание: Архитектор Лиза просыпается утром в больнице и узнает, что сейчас 2018 год. Последнее, что она помнит, – это себя, 35-летнюю неудачницу, в далеком 2013-м. В то время она уже работала в архитектурном бюро обычным помощником проектировщика. Была матерью-одиночкой с маленькой зарплатой. После пробуждения все вокруг утверждают, что сейчас она успешная бизнес-леди. У нее есть все, о чем она когда-то мечтала: любимый мужчина, своя фирма, роскошный дом. Неужели за одну ночь прошло пять лет? Это не мистика и не розыгрыш. Постепенно она восстанавливает события прошлого и с ужасом осознает, какова цена ее успеха. Так ли хороша ее новая волшебная жизнь, какой она кажется на первый взгляд?

Реклама: Нет.
Все раздачи сериала
Sample
Качество: WEBRip
Формат: AVI
Видео кодек: XviD
Аудио кодек: AC3
Видео: 720x400 (1.80:1), 25 fps, XviD ~1700 kbps avg, 0.236 bit/pixel
Аудио: 48.0 kHz, AC3 Dolby Digital, 2/0 (L,R) ch, ~ 192 kbps

MI

General
Complete name : D:\Пять лет спустя 2018\01.Пять лет спустя 2018.avi
Format : AVI
Format/Info : Audio Video Interleave
File size : 640 MiB
Duration : 47 min 8 s
Overall bit rate : 1 898 kb/s
Writing application : VirtualDubMod 1.5.10.3 | www.virtualdub-fr.org || (build 2550/release)
Writing library : VirtualDubMod build 2550/release
Video
ID : 0
Format : MPEG-4 Visual
Format profile : Advanced Simple@L5
Format settings : BVOP1
Format settings, BVOP : 1
Format settings, QPel : No
Format settings, GMC : No warppoints
Format settings, Matrix : Default (MPEG)
Codec ID : XVID
Codec ID/Hint : XviD
Duration : 47 min 8 s
Bit rate : 1 696 kb/s
Width : 720 pixels
Height : 400 pixels
Display aspect ratio : 16:9
Frame rate : 25.000 FPS
Color space : YUV
Chroma subsampling : 4:2:0
Bit depth : 8 bits
Scan type : Progressive
Compression mode : Lossy
Bits/(Pixel*Frame) : 0.236
Stream size : 572 MiB (89%)
Writing library : XviD 73
Audio
ID : 1
Format : AC-3
Format/Info : Audio Coding 3
Codec ID : 2000
Duration : 47 min 8 s
Bit rate mode : Constant
Bit rate : 192 kb/s
Channel(s) : 2 channels
Channel positions : Front: L R
Sampling rate : 48.0 kHz
Frame rate : 31.250 FPS (1536 SPF)
Bit depth : 16 bits
Compression mode : Lossy
Stream size : 64.7 MiB (10%)
Alignment : Split accross interleaves
Interleave, duration : 40 ms (1.00 video frame)
Interleave, preload duratio : 500 ms
Service kind : Complete Main

Скриншоты


Скачать

Скачать бесплатно и на максимальной скорости!

Как скачивать? · Что такое торрент? · Рейтинг и ограничения




Вы не можете начинать темы
Вы не можете отвечать на сообщения
Вы не можете редактировать свои сообщения
Вы не можете удалять свои сообщения
Вы не можете голосовать в опросах
Вы не можете прикреплять файлы к сообщениям
Вы не можете скачивать файлы