Селфи с судьбой / Серии: 1-4 из 4 (Пётр Амелин) [2018, детектив, экранизация, WEBRip 1080p]


by Boris G ®
23-Dec-2018 15:25

[Quote]

Селфи с судьбой / Серии: 1-4 из 4 (Пётр Амелин) [2018, детектив, экранизация, WEBRip 1080p]

Селфи с судьбой
Год выпуска: 2018
Производство: Свэлл Фильм
Жанр: детектив, экранизация
Продолжительность: ~00:44:00 серия
Субтитры: нет
Режиссёр: Пётр Амелин
В ролях: Антон Хабаров, Анастасия Лошакова, Екатерина Решетникова, Алексей Митин, Юлия Полынская, Игорь Вуколов, Маргарита Павлова, Роман Кочержевский, Борис Хвошнянский, Светлана Вильгельм, Игорь Лепихин, Антон Падерин, Анастасия Тюнина, Евгений Капитонов, Павел Григорьев, Елена Симонова, Анастасия Дёмкина, Пётр Логачёв, Станислав Ткаченко, Анастасия Дашина, Ольга Сорока , Василий Бернарделли, Юрий Толмачев, Василий Башмаков, Владислав Кипин

Описание: У профессора физико-математических наук Ильи Субботина странное хобби – он разгадывает преступления. В этот раз ему придётся разбираться в убийстве почтенной дамы, которую задушили в сувенирном магазинчике села Сокольничьего. Дело вроде бы закрыто. Преступник - местный пьянчужка, задержан по горячим следам, но Илья в это не верит и стремится установить истину. В местном доме отдыха вокруг него собирается любопытная компания: экстравагантная поэтесса, что-то скрывающая экскурсоводша, чудаковатый парень, немолодой джентльмен, парочка, "не вылезающая" из интернета, печальная красотка и известный кинорежиссёр. Кто-то из них убийца. Но кто?

Реклама: Нет.
Кинопоиск
Все раздачи сериала
Sample
Качество: WEBRip 1080p - Алехаndr
Формат: MKV
Видео кодек: H.264
Аудио кодек: AC3
Видео: MPEG4 AVC Video, H264, 16:9, 1920x1080, 25 fps, ~2760 kbps, 0.053 bit/pixel
Аудио: AC3 Dolby Digital, 48.0 kHz, 2/0 (L,R) ch, 192 kbps

MI

General
Unique ID : 59047510915410404931137668025520610788 (0x2C6C230E96A4C44336B5AA6AA541DDE4)
Complete name : D:\Селфи с судьбой (2018).by.Алехаndr\Серия 1.by.Алехаndr.mkv
Format : Matroska
Format version : Version 4 / Version 2
File size : 924 MiB
Duration : 43 min 43 s
Overall bit rate : 2 954 kb/s
Encoded date : UTC 2018-10-20 16:30:46
Writing application : mkvmerge v27.0.0 ('Metropolis') 32-bit
Writing library : libebml v1.3.6 + libmatroska v1.4.9 / Lavf57.71.100
Video
ID : 1
Format : AVC
Format/Info : Advanced Video Codec
Format profile : High@L4
Format settings : CABAC / 2 Ref Frames
Format settings, CABAC : Yes
Format settings, ReFrames : 2 frames
Codec ID : V_MPEG4/ISO/AVC
Duration : 43 min 43 s
Bit rate : 2 760 kb/s
Width : 1 920 pixels
Height : 1 080 pixels
Display aspect ratio : 16:9
Frame rate mode : Constant
Frame rate : 25.000 FPS
Color space : YUV
Chroma subsampling : 4:2:0
Bit depth : 8 bits
Scan type : Progressive
Bits/(Pixel*Frame) : 0.053
Stream size : 863 MiB (93%)
Default : Yes
Forced : No
Color range : Limited
Color primaries : BT.709
Transfer characteristics : BT.709
Matrix coefficients : BT.709
Audio
ID : 2
Format : AC-3
Format/Info : Audio Coding 3
Codec ID : A_AC3
Duration : 43 min 43 s
Bit rate mode : Constant
Bit rate : 192 kb/s
Channel(s) : 2 channels
Channel positions : Front: L R
Sampling rate : 48.0 kHz
Frame rate : 31.250 FPS (1536 SPF)
Bit depth : 16 bits
Compression mode : Lossy
Stream size : 60.0 MiB (6%)
Language : English
Service kind : Complete Main
Default : Yes
Forced : No

Скриншоты


Download

Download free and at maximum speed!

How to Download? · What is a torrent? · Ratings and Limitations




You cannot post new topics in this forum
You cannot reply to topics in this forum
You cannot edit your posts in this forum
You cannot delete your posts in this forum
You cannot vote in polls in this forum
You cannot attach files in this forum
You cannot download files in this forum