Котов обижать не рекомендуется / Серии: 1-2 из 2 (Пётр Амелин) [2018, детектив, криминал, экранизация, WEBRip]


by Boris G ®
23-Дек-2018 15:25

[Цитировать]

Котов обижать не рекомендуется / Серии: 1-2 из 2 (Пётр Амелин) [2018, детектив, криминал, экранизация, WEBRip]

Котов обижать не рекомендуется
Год выпуска: 2018
Производство: Свэлл Фильм
Жанр: детектив, криминал, экранизация
Продолжительность: ~00:44:00 серия
Субтитры: нет
Режиссёр: Пётр Амелин
В ролях: Анна Васильева, Алексей Митин, Оксана Базилевич, Сергей Барковский, Михаил Морозов, Дмитрий Сутырин, Тина Тарусина, Татьяна Рассказова, Вадим Яковлев, Никита Плащевский, Кристина Убелс, Дмитрий Кочкин, Виталий Олечкин, Евгений Сиротин, Александр Дюрис, Вероника Юрасова, Игорь Нурисламов, Юлия Яновская , Лидия Рудь, Константин Геклимович, Валентин Николаев
Описание: Света Морозова – талантливый фотограф, она умеет видеть прекрасное в обыденном и подмечает детали, на которые иной не обратил бы внимания. Поэтому она не сидит без работы, что ни день – новая фотосессия. Однажды, возвращаясь с работы, она подбирает на дороге симпатичного белого котёнка. С этого момента её жизнь идёт кувырком.

Реклама: Нет.
Кино-театр
Все раздачи сериала
Sample
Качество: WEBRip - Files-x
Формат: AVI
Видео кодек: XviD
Аудио кодек: AC3
Видео: 720x400 (1.80:1), 25 fps, XviD build 73 ~1540 kbps avg, 0.214 bit/pixel
Аудио: 44.1 kHz, AC3 Dolby Digital, 2/0 (L,R) ch, ~ 192 kbps

MI

General
Complete name : D:\Kotov obizhat ne rekomenduetsya.(2018)\01.Котов обижать не рекомендуется.(2018).WEB-DLRip.Files-x.avi
Format : AVI
Format/Info : Audio Video Interleave
File size : 551 MiB
Duration : 44 min 12 s
Overall bit rate : 1 743 kb/s
Movie name : K0t0B.06izhat.H3.p3k0me3Hdy3tCa.O1.WEB-DLRip
Writing application : VirtualDubMod 1.5.10.3 | www.virtualdub-fr.org || (build 2550/release)
Original source form/Name : Movie
Video
ID : 0
Format : MPEG-4 Visual
Format profile : Advanced Simple@L5
Format settings : BVOP2
Format settings, BVOP : 2
Format settings, QPel : No
Format settings, GMC : No warppoints
Format settings, Matrix : Default (MPEG)
Codec ID : XVID
Codec ID/Hint : XviD
Duration : 44 min 12 s
Bit rate : 1 541 kb/s
Width : 720 pixels
Height : 400 pixels
Display aspect ratio : 16:9
Frame rate : 25.000 FPS
Color space : YUV
Chroma subsampling : 4:2:0
Bit depth : 8 bits
Scan type : Progressive
Compression mode : Lossy
Bits/(Pixel*Frame) : 0.214
Stream size : 487 MiB (88%)
Writing library : XviD 1.2.1 (UTC 2008-12-04)
Audio
ID : 1
Format : AC-3
Format/Info : Audio Coding 3
Codec ID : 2000
Duration : 44 min 12 s
Bit rate mode : Constant
Bit rate : 192 kb/s
Channel(s) : 2 channels
Channel positions : Front: L R
Sampling rate : 44.1 kHz
Frame rate : 28.711 FPS (1536 SPF)
Bit depth : 16 bits
Compression mode : Lossy
Stream size : 60.7 MiB (11%)
Alignment : Split accross interleaves
Interleave, duration : 40 ms (1.00 video frame)
Interleave, preload duratio : 500 ms
Service kind : Complete Main

Скриншоты


Скачать

Скачать бесплатно и на максимальной скорости!

Как скачивать? · Что такое торрент? · Рейтинг и ограничения




Вы не можете начинать темы
Вы не можете отвечать на сообщения
Вы не можете редактировать свои сообщения
Вы не можете удалять свои сообщения
Вы не можете голосовать в опросах
Вы не можете прикреплять файлы к сообщениям
Вы не можете скачивать файлы