Спасти Пушкина (Филипп Коршунов, Павел Мирзоев) [2017, Россия, комедия, WEB-DL 1080p] + Original Rus


Размер:  2.86 GB   |    Зарегистрирован:  4 месяца 23 дня   |    Скачан:  1 раз

Полного источника не было: 4 месяца 18 дней

Личеров:  2  [  0 KB/s  ]   Подробная статистика пиров
by Virtuoz ®
26-Мар-2018 05:23

[Цитировать]

Спасти Пушкина (Филипп Коршунов, Павел Мирзоев) [2017, Россия, комедия, WEB-DL 1080p] + Original Rus

Спасти Пушкина
Страна: Россия
Жанр: комедия
Год выпуска: 2017
Продолжительность: 01:23:14-Перевод: Не требуется
Субтитры: нет
Оригинальная аудиодорожка: русский-Режиссер: Филипп Коршунов, Павел Мирзоев-В ролях: Константин Крюков, Ирина Крутик, Алексей Лукин, Денис Сухомлинов, Арсений Гусев, Юрий Гальцев, Дарья Петриченко, Сергей Рост, Арина Постникова, Влад Красавин
Описание: Всем известно, что А.С. Пушкин – наше всё. Поэтому ученики современного московского лицея хотят во что бы то ни стало спасти великого поэта от неминуемой смерти на дуэли. Школьники с помощью машины времени переносят Александра Сергеевича в XXI век, но и в наши дни его подстерегает немало опасностей.-Релиз от:
-Тип релиза: WEB-DL 1080p
Контейнер: MKV-Видео: 1920x800 (2,40:1), 24 fps, MPEG-4 AVC, ~ 4444 kbps, 0.120 Bits/(Pixel*Frame)-Аудио: Russian: 48 kHz, AC3, 3/2 (L,C,R,l,r) + LFE ch, ~384.00 kbps avg

MediaInfo

Общее
Уникальный идентификатор : 219084400637704047432579045000323566006 (0xA4D21EE9B5B4F5FE8D9DB9DE816089B6)
Полное имя : E:\Spasti.Pushkina.WEBDL.1080p.mkv
Формат : Matroska
Версия формата : Version 2
Размер файла : 2,86 Гбайт
Продолжительность : 1 ч. 23 м.
Общий поток : 4926 Кбит/сек
Дата кодирования : UTC 2017-06-06 04:23:18
Программа кодирования : mkvmerge v5.6.0 ('Kenya Kane') built on May 27 2012 16:44:04
Библиотека кодирования : libebml v1.2.3 + libmatroska v1.3.0
Видео
Идентификатор : 1
Формат : AVC
Формат/Информация : Advanced Video Codec
Профиль формата : High@L4
Параметр CABAC формата : Да
Параметр ReFrames формата : 5 кадров
Идентификатор кодека : V_MPEG4/ISO/AVC
Продолжительность : 1 ч. 23 м.
Битрейт : 4444 Кбит/сек
Ширина : 1920 пикселей
Высота : 806 пикселей
Соотношение сторон : 2,40:1
Режим частоты кадров : Постоянный
Частота кадров : 24,000 кадра/сек
Цветовое пространство : YUV
Субдискретизация насыщенности : 4:2:0
Битовая глубина : 8 бит
Тип развёртки : Прогрессивная
Бит/(Пиксели*Кадры) : 0.120
Размер потока : 2,58 Гбайт (90%)
Язык : Russian
Default : Да
Forced : Нет
Цветовой диапазон : Limited
Основные цвета : BT.709
Характеристики трансфера : BT.709
Коэффициенты матрицы : BT.709
Аудио
Идентификатор : 2
Формат : AC-3
Формат/Информация : Audio Coding 3
Расширение режима : CM (complete main)
Параметр Endianness формата : Big
Идентификатор кодека : A_AC3
Продолжительность : 1 ч. 23 м.
Вид битрейта : Постоянный
Битрейт : 384 Кбит/сек
Каналы : 6 каналов
Расположение каналов : Front: L C R, Side: L R, LFE
Частота : 48,0 КГц
Частота кадров : 31,250 кадров/сек (1536 spf)
Битовая глубина : 16 бит
Метод сжатия : С потерями
Размер потока : 229 Мбайт (8%)
Язык : Russian
Default : Да
Forced : Нет
Меню
00:00:00.000 : en:1
00:06:54.000 : en:2
00:12:44.875 : en:3
00:20:04.000 : en:4
00:25:38.041 : en:5
00:30:59.666 : en:6
00:35:39.999 : en:7
00:41:56.499 : en:8
00:48:23.124 : en:9
00:53:53.124 : en:10
01:00:25.624 : en:11
01:05:37.790 : en:12
01:12:35.415 : en:13

Скриншоты





Вы не можете начинать темы
Вы не можете отвечать на сообщения
Вы не можете редактировать свои сообщения
Вы не можете удалять свои сообщения
Вы не можете голосовать в опросах
Вы не можете прикреплять файлы к сообщениям
Вы можете скачивать файлы