Забытое преступление / Сезон: 1 / Серии: 1-2 из 2 (Валерия Ивановская) [2018, детектив, криминал, WEBRip]


by Boris G ®
23-Дек-2018 15:26

[Цитировать]

Забытое преступление / Сезон: 1 / Серии: 1-2 из 2 (Валерия Ивановская) [2018, детектив, криминал, WEBRip]

Забытое преступление
Год выпуска: 2018
Производство: Россия Akvilon Media
Жанр: детектив, криминал
Продолжительность: 00:44:00
Субтитры: нет
Режиссёр: Валерия Ивановская
В ролях: Кирилл Жандаров, Илья Ермолов, Софья Лебедева, Евгений Фроленков , Роман Индык, Евгения Ахременко, Кристина Бродская, Марина Денисова
Описание: Полицейский Валерий Чебров находится в больнице, куда поступил после ранения при задержании опасного преступника-рецидивиста. Лежа на больничной койке, главный герой узнает, что частично потерял память и совершенно не помнит событий последнего месяца. В палату, навестить Валерия, приходит его родной брат Николай, который приносит дурные вести: у него пропала супруга. Мужчина просит Валерия помочь найти Ксению. Валерий начинает собственное расследование и с ужасом обнаруживает, что именно он похитил жену Николая…
[box=red,green]Без рекламы[/box]-Сэмпл: https://www.sendspace.com/file/2bkqjf
Качество: WEBRip
Формат: AVI
Видео кодек: XviD
Аудио кодек: AC3
Видео: XviD; 1500 Кбит/сек; 720х400 (16:9); 25,000 кадров/сек; Бит/(Пиксели*Кадры): 0.208
Аудио: AC-3; 192 Кбит/сек; 2 канала; 48,0 КГц

MI

Общее
Полное имя : D:\закачки\Забытое преступление (2018).WEB-DLRip.Files-x\1.Забытое преступление (2018).WEB-DLRip.Files-x.avi
Формат : AVI
Формат/Информация : Audio Video Interleave
Размер файла : 541 Мбайт
Продолжительность : 44 м. 28 с.
Общий поток : 1702 Кбит/сек
Программа кодирования : VirtualDubMod 1.5.10.3 | www.virtualdub-fr.org || (build 2550/release)
Библиотека кодирования : VirtualDubMod build 2550/release
Видео
Идентификатор : 0
Формат : MPEG-4 Visual
Профиль формата : Advanced Simple@L5
Настройки формата : BVOP1 / Custom Matrix
Параметр BVOP формата : 1
Параметр QPel формата : Нет
Параметр GMC формата : Без точки перехода
Параметр матрицы формата : Выборочная
Идентификатор кодека : XVID
Идентификатор кодека/Подсказка : XviD
Продолжительность : 44 м. 28 с.
Битрейт : 1500 Кбит/сек
Ширина : 720 пикселей
Высота : 400 пикселей
Соотношение сторон : 16:9
Частота кадров : 25,000 кадров/сек
Цветовое пространство : YUV
Субдискретизация насыщенности : 4:2:0
Битовая глубина : 8 бит
Тип развёртки : Прогрессивная
Метод сжатия : С потерями
Бит/(Пиксели*Кадры) : 0.208
Размер потока : 477 Мбайт (88%)
Библиотека кодирования : XviD 73
Аудио
Идентификатор : 1
Формат : AC-3
Формат/Информация : Audio Coding 3
Идентификатор кодека : 2000
Продолжительность : 44 м. 28 с.
Вид битрейта : Постоянный
Битрейт : 192 Кбит/сек
Каналы : 2 канала
Расположение каналов : Front: L R
Частота : 48,0 КГц
Частота кадров : 31,250 кадров/сек (1536 SPF)
Битовая глубина : 16 бит
Метод сжатия : С потерями
Размер потока : 61,1 Мбайт (11%)
Выравнивание : Разделение по промежуткам
Продолжительность промежутка : 40 мс. (1,00 видеокадр)
Время предзагрузки промежутка : 500 мс.
ServiceKind/String : Complete Main

Скриншоты

Предыдущие и альтернативные раздачи
Релиз-группы
Скачать

Скачать бесплатно и на максимальной скорости!

Как скачивать? · Что такое торрент? · Рейтинг и ограничения




Вы не можете начинать темы
Вы не можете отвечать на сообщения
Вы не можете редактировать свои сообщения
Вы не можете удалять свои сообщения
Вы не можете голосовать в опросах
Вы не можете прикреплять файлы к сообщениям
Вы не можете скачивать файлы