Домик в сердце (Грач Кешишян) [2014, Россия, Армения, семейный, WEB-DL 1080p]


by Virtuoz ®
26-Мар-2018 08:23

[Цитировать]

Домик в сердце (Грач Кешишян) [2014, Россия, Армения, семейный, WEB-DL 1080p]

Домик в сердце
Страна: Россия, Армения
Жанр: семейный
Год выпуска: 2014
Продолжительность: 01:29:26
Перевод: не требуется
Субтитры: нет
Оригинальная аудиодорожка: русский
Режиссёр: Грач Кешишян
В ролях: Александр Хачатрян, Армен Джигарханян, Мария Сёмкина, Хорен Левонян, Екатерина Стриженова, Джулия Погосова, Сергей Погосов, Эмилия Погосова, Ян Цапник, Олег Шкловский.
Описание: Катя — молодая бизнес-вумен, которой никогда не хватает времени на личную жизнь. Умирая, отец оставляет ей в наследство свою компанию с условием, что она ее получит, лишь когда обзаведется мужем и тремя детьми. По иронии судьбы водитель Кати Артур, и по совместительству отец-одиночка троих детей, остро нуждается в деньгах, чтобы закрыть свои долги. Как им обоим выбраться из своих непростых ситуаций? Решение приходит неожиданно: надо просто вступить в брак по расчету. Но традиции все равно нужно соблюдать, и парочке предстоит увлекательное путешествие на родину Артура — Армению, чтобы как следует познакомиться с его многочисленной родней.

Качество видео: WEB-DL (1080p)
Формат видео: MKV
Видео: MPEG-4 AVC, 4902 Кбит/с, 1920x950
Аудио: АС3, 2 ch, 384 Кбит/с

MediaInfo

Общее
Уникальный идентификатор : 222589506923648665314459165835081267812 (0xA7752DFECAB41903B0A9843C0B4BBA64)
Полное имя : C:\V.S.P\movie\Домик в сердце_2014г_Армен Борисович Джигарханян & Александр Хачатурович Хачатрян\Домик в сердце_2014г_Армен Борисович Джигарханян & Александр Хачатурович Хачатрян.mkv
Формат : Matroska
Версия формата : Version 4 / Version 2
Размер файла : 3,37 Гбайт
Продолжительность : 1 ч. 29 м.
Общий поток : 5394 Кбит/сек
Название фильма : Домик в сердце_2014г_Армен Борисович Джигарханян & Александр Хачатурович Хачатрян
Дата кодирования : UTC 2017-05-30 16:55:16
Программа кодирования : mkvmerge v6.9.1 ('Blue Panther') 64bit built on Apr 18 2014 18:23:38
Библиотека кодирования : libebml v1.3.0 + libmatroska v1.4.1
Видео
Идентификатор : 1
Формат : AVC
Формат/Информация : Advanced Video Codec
Профиль формата : High@L4.0
Параметр CABAC формата : Да
Параметр ReFrames формата : 4 кадра
Идентификатор кодека : V_MPEG4/ISO/AVC
Продолжительность : 1 ч. 29 м.
Битрейт : 4902 Кбит/сек
Ширина : 1920 пикселей
Высота : 950 пикселей
Соотношение сторон : 2,021
Режим частоты кадров : Постоянный
Частота кадров : 25,000 кадров/сек
Цветовое пространство : YUV
Субдискретизация насыщенности : 4:2:0
Битовая глубина : 8 бит
Тип развёртки : Прогрессивная
Бит/(Пиксели*Кадры) : 0.108
Размер потока : 3,06 Гбайт (91%)
Заголовок : Домик в сердце_2014г_Армен Борисович Джигарханян & Александр Хачатурович Хачатрян
Язык : Russian
Default : Да
Forced : Нет
Основные цвета : BT.709
Характеристики трансфера : BT.709
Коэффициенты матрицы : BT.709
Аудио
Идентификатор : 2
Формат : AC-3
Формат/Информация : Audio Coding 3
Расширение режима : CM (complete main)
Параметр Endianness формата : Big
Идентификатор кодека : A_AC3
Продолжительность : 1 ч. 29 м.
Вид битрейта : Постоянный
Битрейт : 384 Кбит/сек
Каналы : 2 канала
Расположение каналов : Front: L R
Частота : 48,0 КГц
Битовая глубина : 16 бит
Метод сжатия : С потерями
Размер потока : 246 Мбайт (7%)
Язык : Russian
Default : Да
Forced : Нет
Меню
00:00:00.000 : en:Глава 1
00:04:15.000 : en:Глава 2
00:10:03.000 : en:Глава 3
00:15:26.000 : en:Глава 4
00:20:24.000 : en:Глава 5
00:24:35.000 : en:Глава 6
00:29:10.000 : en:Глава 7
00:32:38.000 : en:Глава 8
00:36:03.000 : en:Глава 9
00:40:35.000 : en:Глава 10
00:46:16.000 : en:Глава 11
00:52:19.000 : en:Глава 12
00:56:26.000 : en:Глава 13
01:01:38.000 : en:Глава 14
01:05:36.000 : en:Глава 15
01:12:31.000 : en:Глава 16
01:17:51.000 : en:Глава 17
01:23:29.000 : en:Глава 18

Скриншоты

скрины съемок




Цитата:
За WEB-DL (1080p) спасибо огромное fokinura(кинозал)
Скачать

Скачать бесплатно и на максимальной скорости!

Как скачивать? · Что такое торрент? · Рейтинг и ограничения




Вы не можете начинать темы
Вы не можете отвечать на сообщения
Вы не можете редактировать свои сообщения
Вы не можете удалять свои сообщения
Вы не можете голосовать в опросах
Вы не можете прикреплять файлы к сообщениям
Вы не можете скачивать файлы