Папаньки / Серии: 1-16 из 16 (Ирина Васильева, Александр Кананович) [2018, комедия, WEBRip-AVC]


by Boris G ®
23-Дек-2018 15:26

[Цитировать]

Папаньки / Серии: 1-16 из 16 (Ирина Васильева, Александр Кананович) [2018, комедия, WEBRip-AVC]

Папаньки
Год выпуска: 2018
Производство: Дизель Студия
Жанр: комедия
Продолжительность: ~00:42:00 серия
Субтитры: нет
Режиссёр: Ирина Васильева, Александр Кананович
В ролях: Егор Крутоголов, Евгений Гашенко, Евгений Сморигин, Андрей Фединчик, Лилия Ребрик, Демьян Шиян, Ольга Арутюнян, Вероника Лукьяненко, Ольга Лукьяненко, Надежда Кондратовская, Анна Варпаховская, Олег Стальчук, Вячеслав Хостикоев, Александр Ярема, Олег Иваница, Лариса Трояновская, Татьяна Зиновенко, Анатолий Зиновенко, Александр Бережок, Александр Бегма, Мария Мархай
Описание: Четверо друзей живут в одном дворе столичной многоэтажки. Кроме чисто мужских интересов, их объединяет важная тема – воспитание детей. Один из героев только готовится стать отцом, другой воспитывает 7-летнего сына, а третий – сына и двух дочек разного возраста. Герои безумно любят своих детей, гордятся их успехами и активно вовлечены в их воспитание. Только иногда отцы забывают, что сами уже выросли. И есть у них ещё четвёртый друг – заядлый холостяк и ловелас, который категорически не хочет заводить детей.

Реклама: Нет.
Кино-театр
Все раздачи сериала
Sample
Качество: WEBRip-AVC - Серый1779
Формат: MKV
Видео кодек: H.264
Аудио кодек: AC3
Видео: MPEG4 AVC Video, H264, 16:9, 1024x576, 25 fps, ~1600 kbps, 0.109 bit/pixel
Аудио: AC3 Dolby Digital, 44.1 kHz, 2/0 (L,R) ch, 192 kbps

Внимание! Раздача ведётся путём добавления новых серий

Раздача ведётся путём добавления новых серий, при каждом добавлении создаётся новый торрент. Чтобы начать докачку новой серии, пользователям необходимо сделать следующее:
- Остановить скачивание.
- Удалить старый торрент у себя из клиента (старые серии удалять не надо).
- Скачать новый торрент и запустить его у себя в клиенте вместо старого, при этом указать клиенту путь в старую папку куда и должно происходить скачивание новых серий.
Ваш клиент при этом должен произвести хеширование (проверку) старой папки (если не производит сам - помогите ему сделать это), и будет докачивать только те серии которых у вас ещё нет. Старые серии при этом не удаляются, а продолжают раздаваться!
Если вы уже удалили старые серии, то предотвратить повторную закачку старых серий можно, отжав галочку в соответствующих местах при запуске нового торрента. По возможности, желательно не удалять старые серии как можно дольше, чтобы релизер не столько продолжал раздавать старые серии, а смог сконцентрироваться на новых.

MI

General
Unique ID : 179768837979091169407385584928443355455 (0x873E380423B29E83A2DC8528DD38513F)
Complete name : D:\Папаньки.(2018).WEB-DLRip.(AVC).Files-x\01.Папаньки.(2018).WEB-DLRip.(AVC).by.Серый1779.Files-x.mkv
Format : Matroska
Format version : Version 2
File size : 538 MiB
Duration : 42mn 2s
Overall bit rate : 1 791 Kbps
Encoded date : UTC 2018-09-26 09:06:56
Writing application : mkvmerge v7.8.0 ('River Man') 32bit built on Apr 3 2015 12:11:22
Writing library : libebml v1.3.1 + libmatroska v1.4.2
Video
ID : 1
Format : AVC
Format/Info : Advanced Video Codec
Format profile : High@L4.1
Format settings, CABAC : Yes
Format settings, ReFrames : 9 frames
Codec ID : V_MPEG4/ISO/AVC
Duration : 42mn 2s
Bit rate : 1 600 Kbps
Width : 1 024 pixels
Height : 576 pixels
Display aspect ratio : 16:9
Frame rate mode : Constant
Frame rate : 25.000 fps
Color space : YUV
Chroma subsampling : 4:2:0
Bit depth : 8 bits
Scan type : Progressive
Bits/(Pixel*Frame) : 0.109
Stream size : 470 MiB (87%)
Writing library : x264 core 146 r2538 121396c
Encoding settings : cabac=1 / ref=9 / deblock=1:-2:-1 / analyse=0x3:0x133 / me=umh / subme=9 / psy=1 / psy_rd=1.00:0.15 / mixed_ref=1 / me_range=32 / chroma_me=1 / trellis=2 / 8x8dct=1 / cqm=0 / deadzone=21,11 / fast_pskip=0 / chroma_qp_offset=-3 / threads=18 / lookahead_threads=3 / sliced_threads=0 / nr=0 / decimate=1 / interlaced=0 / bluray_compat=0 / constrained_intra=0 / bframes=9 / b_pyramid=2 / b_adapt=2 / b_bias=0 / direct=1 / weightb=1 / open_gop=0 / weightp=2 / keyint=250 / keyint_min=25 / scenecut=40 / intra_refresh=0 / rc=2pass / mbtree=0 / bitrate=1600 / ratetol=1.0 / qcomp=0.60 / qpmin=0 / qpmax=69 / qpstep=4 / cplxblur=20.0 / qblur=0.5 / ip_ratio=1.40 / pb_ratio=1.30 / aq=2:1.00
Default : Yes
Forced : No
Color primaries : BT.709
Transfer characteristics : BT.709
Matrix coefficients : BT.709
Audio
ID : 2
Format : AC-3
Format/Info : Audio Coding 3
Mode extension : CM (complete main)
Format settings, Endianness : Big
Codec ID : A_AC3
Duration : 42mn 2s
Bit rate mode : Constant
Bit rate : 192 Kbps
Channel count : 2 channels
Channel positions : Front: L R
Sampling rate : 44.1 KHz
Bit depth : 16 bits
Compression mode : Lossy
Stream size : 57.7 MiB (11%)
Default : Yes
Forced : No

Скриншоты


Скачать

Скачать бесплатно и на максимальной скорости!

Как скачивать? · Что такое торрент? · Рейтинг и ограничения




Вы не можете начинать темы
Вы не можете отвечать на сообщения
Вы не можете редактировать свои сообщения
Вы не можете удалять свои сообщения
Вы не можете голосовать в опросах
Вы не можете прикреплять файлы к сообщениям
Вы не можете скачивать файлы