Шахта (Нурбек Эген) [2013, Россия, драма, мелодрама, HDTV 1080i] Original Rus


Размер:  4.67 GB   |    Зарегистрирован:  4 месяца 22 дня   |    Скачан:  0 раз

Полного источника не было: Никогда

by Virtuoz ®
26-Мар-2018 05:23

[Цитировать]

Шахта (Нурбек Эген) [2013, Россия, драма, мелодрама, HDTV 1080i] Original Rus

Шахта
Страна: Россия
Студия: Киностудия "Мосфильм"
Жанр: Драма, мелодрама
Год выпуска: 2013
Продолжительность: 01:19:35
Перевод: Не требуется
Субтитры: Русские (форсированные на английскую речь, вшитые)
Оригинальная аудио дорожка: Русский
Режиссёр: Нурбек Эген
В ролях: Никита Осадчий, Виталий Кищенко, Сергей Шнуров, Надежда Маркина, Шэвлин Стэйси, Вэрфилд Морис, Виктория Романенко
Описание: Подросток Саша живет вместе с сестрой в маленьком шахтерском городке на севере России. Его отец, бывший шахтер, уехал в Америку в надежде сделать там карьеру боксера. А Саня пока учит английский и мечтает о том, чтобы отец забрал его к себе. Но для этого он должен победить на ринге сильного противника. Смогут ли отец и сын когда-нибудь быть вместе?
Доп. информация:
Автор релиза -
Источник аудио и видео - HDTV 1080i TS - моя запись с канала Наш Кинороман HD
Есть субтитры русские вшитые неотключаемые на английскую речь


Сэмпл: https://yadi.sk/i/Qy9kAg4q3J8Lws
Рекламы нет!
Качество видео: HDTV 1080i
Формат видео: TS
Видео: MPEG-4 AVC, 1920x1080 (16:9), 25.000 fps, 7344 kbps, 0.142 bit/pixel
Аудио 1: Русский MP2, 48000 Гц, 2ch, 192 kbps
Аудио 2: Русский AC3, 48000 Гц, 6ch, 448 kbps

MediaInfo

Общее
Идентификатор : 1 (0x1)
Полное имя : D:\Шахта.2013.HDTV.1080i-ylnian.ts
Формат : MPEG-TS
Размер файла : 4,67 Гбайт
Продолжительность : 1 ч. 19 м.
Режим общего битрейта : Переменный
Общий поток : 8406 Кбит/сек
Видео
Идентификатор : 3551 (0xDDF)
Идентификатор меню : 17015 (0x4277)
Формат : AVC
Формат/Информация : Advanced Video Codec
Профиль формата : Main@L4
Параметр CABAC формата : Да
Параметр ReFrames формата : 4 кадра
Параметр GOP формата : M=1, N=32
Идентификатор кодека : 27
Продолжительность : 1 ч. 19 м.
Битрейт : 7344 Кбит/сек
Ширина : 1920 пикселей
Высота : 1080 пикселей
Соотношение сторон : 16:9
Частота кадров : 25,000 кадров/сек
Цветовое пространство : YUV
Субдискретизация насыщенности : 4:2:0
Битовая глубина : 8 бит
Тип развёртки : Чересстрочная
Метод сохранения типа развёртки : Раздельные поля
Порядок развёртки : Верхнее поле первое
Бит/(Пиксели*Кадры) : 0.142
Размер потока : 4,08 Гбайт (87%)
Цветовой диапазон : Limited
Основные цвета : BT.709
Характеристики трансфера : BT.709
Коэффициенты матрицы : BT.709
Аудио #1
Идентификатор : 3552 (0xDE0)
Идентификатор меню : 17015 (0x4277)
Формат : MPEG Audio
Версия формата : Version 1
Профиль формата : Layer 2
Идентификатор кодека : 3
Продолжительность : 1 ч. 19 м.
Вид битрейта : Постоянный
Битрейт : 192 Кбит/сек
Каналы : 2 канала
Частота : 48,0 КГц
Метод сжатия : С потерями
Размер потока : 109 Мбайт (2%)
Язык : Russian
Аудио #2
Идентификатор : 3553 (0xDE1)
Идентификатор меню : 17015 (0x4277)
Формат : AC-3
Формат/Информация : Audio Coding 3
Параметр Endianness формата : Big
Идентификатор кодека : 6
Продолжительность : 1 ч. 19 м.
Вид битрейта : Постоянный
Битрейт : 448 Кбит/сек
Каналы : 6 каналов
Расположение каналов : Front: L C R, Side: L R, LFE
Частота : 48,0 КГц
Частота кадров : 31,250 кадров/сек (1536 spf)
Битовая глубина : 16 бит
Метод сжатия : С потерями
Размер потока : 255 Мбайт (5%)
Язык : Russian
ServiceKind/String : Complete Main



Вы не можете начинать темы
Вы не можете отвечать на сообщения
Вы не можете редактировать свои сообщения
Вы не можете удалять свои сообщения
Вы не можете голосовать в опросах
Вы не можете прикреплять файлы к сообщениям
Вы можете скачивать файлы