Один шанс из тысячи (Левон Кочарян) [1968, СССР, Приключения, разведка, исторический, военный, HDTV 1080i] [Широкоэкранная версия] Original Rus


Размер:  6.54 GB   |    Зарегистрирован:  4 месяца 22 дня   |    Скачан:  0 раз

Полного источника не было: Никогда

by Virtuoz ®
26-Мар-2018 05:23

[Цитировать]

Один шанс из тысячи (Левон Кочарян) [1968, СССР, Приключения, разведка, исторический, военный, HDTV 1080i] [Широкоэкранная версия] Original Rus

Один шанс из тысячи
Широкоэкранная версия
Страна: СССР
Студия: Одесская киностудия
Жанр: Приключения, разведка, исторический, военный
Год выпуска: 1968
Продолжительность: 01:16:12
Перевод: Не требуется
Субтитры: Нет
Оригинальная аудио дорожка: Русский
Режиссёр: Левон Кочарян
В ролях: Анатолий Солоницын, Аркадий Свидерский, Александр Фадеев-мл., Харий Швейц, Владимир Маренков, Олег Халимонов, Жанна Прохоренко, Николай Гринько, Аркадий Толбузин, Гурген Тонунц, Николай Крюков, Григорий Шпигель, Олег Савосин, Лев Поляков, Волдемар Акуратерс, Владимир Лапин, Юрий Прокопович, Павел Винник, Виктор Павловский, Эдди Рознер, Валентин Рудович, Марк Толмачёв, Валерий Шапкин, Геннадий Ялович, Николай Бармин, Лаймонас Норейка, Вячеслав Гостинский, Левон Кочарян
Описание: В 1942 году отряд разведчиков-десантников, действуя в тылу врага, прорывается из немецкого кольца. Возглавляемые капитаном Мигунько, бойцы добираются до шоссе, где захватывают легковую машину с Двигубским, агентом вражеской разведки. Капитан решает с его помощью проникнуть в разведывательный центр фашистов и ликвидировать его...
Доп. информация:
Автор релиза -
Источник аудио и видео - HDTV 1080i TS - моя запись с канала Первый HD
В дорожке AC3, 48000 Гц, 6ch, 384 kbps по факту лишь 2 канала со звуком, а оставшиеся 4 канала пустые
Широкоэкранная версия + Качественная мастер-копия от Первого канала!



Сэмпл: https://yadi.sk/i/P1K9C_nn3J7jvY
Рекламы нет!
Качество видео: HDTV 1080i
Формат видео: TS
Видео: MPEG-4 AVC, 1920x1080 (16:9), 25.000 fps, 11100 kbps, 0.214 bit/pixel
Аудио 1: Русский MP2, 48000 Гц, 2ch, 192 kbps
Аудио 2: Русский AC3, 48000 Гц, 2ch, 384 kbps

MediaInfo

Общее
Идентификатор : 1 (0x1)
Полное имя : D:\Один.шанс.из.тысячи.1968.HDTV.1080i-ylnian.ts
Формат : MPEG-TS
Размер файла : 6,54 Гбайт
Продолжительность : 1 ч. 16 м.
Режим общего битрейта : Переменный
Общий поток : 12,3 Мбит/сек
Видео
Идентификатор : 205 (0xCD)
Идентификатор меню : 20105 (0x4E89)
Формат : AVC
Формат/Информация : Advanced Video Codec
Профиль формата : High@L4
Параметр CABAC формата : Да
Параметр ReFrames формата : 4 кадра
Идентификатор кодека : 27
Продолжительность : 1 ч. 16 м.
Битрейт : 11,1 Мбит/сек
Ширина : 1920 пикселей
Высота : 1080 пикселей
Соотношение сторон : 16:9
Частота кадров : 25,000 кадров/сек
Стандарт вещания : Component
Цветовое пространство : YUV
Субдискретизация насыщенности : 4:2:0
Битовая глубина : 8 бит
Тип развёртки : Чересстрочная
Метод сохранения типа развёртки : Раздельные поля
Порядок развёртки : Верхнее поле первое
Бит/(Пиксели*Кадры) : 0.214
Размер потока : 5,91 Гбайт (90%)
Цветовой диапазон : Limited
Основные цвета : BT.709
Характеристики трансфера : BT.709
Коэффициенты матрицы : BT.709
Аудио #1
Идентификатор : 305 (0x131)
Идентификатор меню : 20105 (0x4E89)
Формат : MPEG Audio
Версия формата : Version 1
Профиль формата : Layer 2
Идентификатор кодека : 3
Продолжительность : 1 ч. 16 м.
Вид битрейта : Постоянный
Битрейт : 192 Кбит/сек
Каналы : 2 канала
Частота : 48,0 КГц
Метод сжатия : С потерями
Размер потока : 105 Мбайт (2%)
Язык : Russian
Аудио #2
Идентификатор : 405 (0x195)
Идентификатор меню : 20105 (0x4E89)
Формат : AC-3
Формат/Информация : Audio Coding 3
Параметр Endianness формата : Big
Идентификатор кодека : 6
Продолжительность : 1 ч. 16 м.
Вид битрейта : Постоянный
Битрейт : 384 Кбит/сек
Каналы : 6 каналов
Расположение каналов : Front: L C R, Side: L R, LFE
Частота : 48,0 КГц
Частота кадров : 31,250 кадров/сек (1536 spf)
Битовая глубина : 16 бит
Метод сжатия : С потерями
Размер потока : 209 Мбайт (3%)
Язык : Russian
ServiceKind/String : Complete Main

Сравнение

Сравнение с (DVD) - http://screenshotcomparison.com/comparison/209780



Вы не можете начинать темы
Вы не можете отвечать на сообщения
Вы не можете редактировать свои сообщения
Вы не можете удалять свои сообщения
Вы не можете голосовать в опросах
Вы не можете прикреплять файлы к сообщениям
Вы можете скачивать файлы