Канцелярская *** / Серии: 1-16 из 16 (Иван Глубоков) [2018, детектив, драма, криминал, WEBRip 1080p]


by Boris G ®
23-Дек-2018 15:26

[Цитировать]

Канцелярская *** / Серии: 1-16 из 16 (Иван Глубоков) [2018, детектив, драма, криминал, WEBRip 1080p]

Канцелярская ***
Год выпуска: 2018
Производство: Триикс медиа
Жанр: детектив, драма, криминал
Продолжительность: ~00:50:00 серия
Субтитры: нет
Режиссёр: Иван Глубоков
В ролях: Алексей Кравченко, Константин Стрельников, Ингрид Олеринская, Елена Полякова, Алексей Нилов, Вадим Сквирский, Роман Жилкин, Валерий Гришко, Андрей Павловец, Екатерина Рокотова, Сергей Кошонин, Андрей Полищук, Дмитрий Сутырин
Описание: Сотрудника полицейского архива — майора Андрея Вершинина — внезапно повышают и переводят в приграничный город Портовый. Вершинину предстоит занять должность руководителя УВД вместо недавно погибшего полковника Авдеева. Нового начальника встречают настороженно: подчинённые почти открыто с ним конфликтуют, а пресса и общественность, взволнованные недавней серией ограблений, просто возмущены этим назначением. Теперь герою предстоит доказать свою компетентность в реальном раскрытии преступлений и не отступиться от дела даже в атмосфере всеобщего недоверия.

Реклама: Нет.
Кинопоиск
Все раздачи сериала
Sample
Качество: WEBRip 1080p - Nikolspup
Формат: MKV
Видео кодек: H.264
Аудио кодек: AC3
Видео: MPEG4 AVC Video, H264, 16:9, 1920x1080, 25 fps, ~6000 kbps, 0.116 bit/pixel
Аудио: AC3 Dolby Digital, 48.0 kHz, 2/0 (L,R) ch, 192 kbps

Внимание! Раздача ведётся путём добавления новых серий

Раздача ведётся путём добавления новых серий, при каждом добавлении создаётся новый торрент. Чтобы начать докачку новой серии, пользователям необходимо сделать следующее:
- Остановить скачивание.
- Удалить старый торрент у себя из клиента (старые серии удалять не надо).
- Скачать новый торрент и запустить его у себя в клиенте вместо старого, при этом указать клиенту путь в старую папку куда и должно происходить скачивание новых серий.
Ваш клиент при этом должен произвести хеширование (проверку) старой папки (если не производит сам - помогите ему сделать это), и будет докачивать только те серии которых у вас ещё нет. Старые серии при этом не удаляются, а продолжают раздаваться!
Если вы уже удалили старые серии, то предотвратить повторную закачку старых серий можно, отжав галочку в соответствующих местах при запуске нового торрента. По возможности, желательно не удалять старые серии как можно дольше, чтобы релизер не столько продолжал раздавать старые серии, а смог сконцентрироваться на новых.

MI

General
Unique ID : 230512417606456840790297119130014199168 (0xAD6B13A6AEF44A828A60B2558C102D80)
Complete name : D:\Kantselyarskaya.krysa.2018.WEB-Dl.(1080p).Nikolspup\Kantselyarskaya.krysa.(01.seriya.iz.16).2018.WEB-Dl.(1080p).Nikolspup.mkv
Format : Matroska
Format version : Version 4 / Version 2
File size : 2.17 GiB
Duration : 50mn 34s
Overall bit rate mode : Constant
Overall bit rate : 6 157 Kbps
Encoded date : UTC 2018-09-24 18:39:17
Writing application : mkvmerge v7.8.0 ('River Man') 32bit built on Mar 27 2015 16:18:02
Writing library : libebml v1.3.1 + libmatroska v1.4.2
DURATION : 00:50:34.048000000
NUMBER_OF_FRAMES : 94814
NUMBER_OF_BYTES : 72817152
_STATISTICS_WRITING_APP : mkvmerge v7.8.0 ('River Man') 32bit built on Mar 27 2015 16:18:02
_STATISTICS_WRITING_DATE_UTC : 2018-09-24 18:39:17
_STATISTICS_TAGS : BPS DURATION NUMBER_OF_FRAMES NUMBER_OF_BYTES
Video
ID : 1
Format : AVC
Format/Info : Advanced Video Codec
Format profile : High@L4.1
Format settings, CABAC : No
Format settings, ReFrames : 2 frames
Codec ID : V_MPEG4/ISO/AVC
Duration : 50mn 34s
Bit rate mode : Constant
Bit rate : 6 000 Kbps
Width : 1 920 pixels
Height : 1 080 pixels
Display aspect ratio : 16:9
Frame rate mode : Constant
Frame rate : 25.000 fps
Standard : PAL
Color space : YUV
Chroma subsampling : 4:2:0
Bit depth : 8 bits
Scan type : Progressive
Bits/(Pixel*Frame) : 0.116
Stream size : 2.06 GiB (95%)
Default : Yes
Forced : No
Color primaries : BT.709
Transfer characteristics : BT.709
Matrix coefficients : BT.709
Audio
ID : 2
Format : AC-3
Format/Info : Audio Coding 3
Mode extension : CM (complete main)
Format settings, Endianness : Big
Codec ID : A_AC3
Duration : 50mn 34s
Bit rate mode : Constant
Bit rate : 192 Kbps
Channel count : 2 channels
Channel positions : Front: L R
Sampling rate : 48.0 KHz
Bit depth : 16 bits
Compression mode : Lossy
Stream size : 69.4 MiB (3%)
Language : Russian
Default : Yes
Forced : No

Скриншоты


Скачать

Скачать бесплатно и на максимальной скорости!

Как скачивать? · Что такое торрент? · Рейтинг и ограничения




Вы не можете начинать темы
Вы не можете отвечать на сообщения
Вы не можете редактировать свои сообщения
Вы не можете удалять свои сообщения
Вы не можете голосовать в опросах
Вы не можете прикреплять файлы к сообщениям
Вы не можете скачивать файлы