Королева бензоколонки (Николай Литус, Алексей Мишурин) [1962, СССР, Комедия, HDTV 1080i] Original Rus


by Virtuoz ®
26-Мар-2018 08:23

[Цитировать]

Королева бензоколонки (Николай Литус, Алексей Мишурин) [1962, СССР, Комедия, HDTV 1080i] Original Rus

Королева бензоколонки
Страна: СССР
Студия: Киностудия им. А. Довженко
Жанр: Комедия
Год выпуска: 1962
Продолжительность: 01:12:54
Перевод: Не требуется
Субтитры: Нет
Оригинальная аудио дорожка: Русский
Режиссёр: Николай Литус, Алексей Мишурин
В ролях: Надежда Румянцева, Андрей Сова, Алексей Кожевников, Нонна Копержинская, Юрий Белов, Владимир Белокуров, Сергей Блинников, Виктор Мягкий, Николай Яковченко, Евгения Опалова, Виктор Халатов, Павел Винник, Александр Хвыля, Сергей Шеметило, Николай Панасьев, Валентин Грудинин, Григорий Тесля, Валентин Черняк, Александр Толстых, Валентин Зиновьев, Семён Лихогоденко, Валерий Панарин, Борис Болдыревский, Михаил Крамар
Описание: Как и все девушки шестидесятых годов, Людмила мечтает танцевать в балете на льду. Но она не проходит по конкурсу - и меняет свою мечту: после ряда приключений Людмила устраивается на бензоколонке заправщицей...
Доп. информация:
Автор релиза -
Источник аудио и видео - HDTV 1080i TS - моя запись с канала Первый HD
В дорожке AC3, 48000 Гц, 6ch, 384 kbps по факту лишь 2 канала со звуком, а оставшиеся 4 канала пустые
Реставрация изображения от Первого канала!
За основу была взята моя запись от 01.05.2017, т.к. она имела наименьшее количество рекламных вставок. Донорами послужили записи от 30.04.2017 и от 13.10.2013.
Для максимально комфортного просмотра сделал следующее:
1. Удалены всплывающие анонсы передач
2. Удалены послерекламные вставки с названием фильма
3. Удалены затемнения картинки перед рекламными роликами
4. Удалено предупреждение о вреде табакокурения
Сравнение со старым релизом (5,36 ГБ) - http://screenshotcomparison.com/comparison/208503
Теперь это чистый HDTV без всплывающих окошек и посторонних надписей, мешающих просмотру!



Сэмпл: https://yadi.sk/i/SCnVxHoZ3HWTwk
Рекламы нет!
Качество видео: HDTV 1080i
Формат видео: TS
Видео: MPEG-4 AVC, 1920x1080 (16:9), 25.000 fps, 7751 kbps, 0.150 bit/pixel
Аудио 1: Русский MP2, 48000 Гц, 2ch, 192 kbps
Аудио 2: Русский AC3, 48000 Гц, 2ch, 384 kbps

MediaInfo

Общее
Идентификатор : 1 (0x1)
Полное имя : D:\Королева.бензоколонки.1962.HDTV.1080i-ylnian.ts
Формат : MPEG-TS
Размер файла : 4,46 Гбайт
Продолжительность : 1 ч. 12 м.
Режим общего битрейта : Переменный
Общий поток : 8766 Кбит/сек
Видео
Идентификатор : 205 (0xCD)
Идентификатор меню : 20105 (0x4E89)
Формат : AVC
Формат/Информация : Advanced Video Codec
Профиль формата : High@L4
Параметр CABAC формата : Да
Параметр ReFrames формата : 4 кадра
Идентификатор кодека : 27
Продолжительность : 1 ч. 12 м.
Битрейт : 7751 Кбит/сек
Ширина : 1920 пикселей
Высота : 1080 пикселей
Соотношение сторон : 16:9
Частота кадров : 25,000 кадров/сек
Стандарт вещания : Component
Цветовое пространство : YUV
Субдискретизация насыщенности : 4:2:0
Битовая глубина : 8 бит
Тип развёртки : Чересстрочная
Метод сохранения типа развёртки : Раздельные поля
Порядок развёртки : Верхнее поле первое
Бит/(Пиксели*Кадры) : 0.150
Размер потока : 3,95 Гбайт (88%)
Цветовой диапазон : Limited
Основные цвета : BT.709
Характеристики трансфера : BT.709
Коэффициенты матрицы : BT.709
Аудио #1
Идентификатор : 305 (0x131)
Идентификатор меню : 20105 (0x4E89)
Формат : MPEG Audio
Версия формата : Version 1
Профиль формата : Layer 2
Идентификатор кодека : 3
Продолжительность : 1 ч. 12 м.
Вид битрейта : Постоянный
Битрейт : 192 Кбит/сек
Каналы : 2 канала
Частота : 48,0 КГц
Метод сжатия : С потерями
Размер потока : 100 Мбайт (2%)
Язык : Russian
Аудио #2
Идентификатор : 405 (0x195)
Идентификатор меню : 20105 (0x4E89)
Формат : AC-3
Формат/Информация : Audio Coding 3
Параметр Endianness формата : Big
Идентификатор кодека : 6
Продолжительность : 1 ч. 12 м.
Вид битрейта : Постоянный
Битрейт : 384 Кбит/сек
Каналы : 6 каналов
Расположение каналов : Front: L C R, Side: L R, LFE
Частота : 48,0 КГц
Частота кадров : 31,250 кадров/сек (1536 spf)
Битовая глубина : 16 бит
Метод сжатия : С потерями
Размер потока : 200 Мбайт (4%)
Язык : Russian
ServiceKind/String : Complete Main
Скачать

Скачать бесплатно и на максимальной скорости!

Как скачивать? · Что такое торрент? · Рейтинг и ограничения




Вы не можете начинать темы
Вы не можете отвечать на сообщения
Вы не можете редактировать свои сообщения
Вы не можете удалять свои сообщения
Вы не можете голосовать в опросах
Вы не можете прикреплять файлы к сообщениям
Вы не можете скачивать файлы