Защитники (Сарик Андреасян) [2017, Россия, фантастика, фэнтези, боевик, приключения, BDRip 720p] + Original Rus


Размер:  4.39 GB   |    Зарегистрирован:  4 месяца 22 дня   |    Скачан:  0 раз
Сидов:  2  [  0 KB/s  ]   Личеров:  2  [  0 KB/s  ]   Подробная статистика пиров
by Virtuoz ®
26-Мар-2018 05:23

[Цитировать]

Защитники (Сарик Андреасян) [2017, Россия, фантастика, фэнтези, боевик, приключения, BDRip 720p] + Original Rus

Защитники
Страна: Россия
Жанр: фантастика, фэнтези, боевик, приключения
Год выпуска: 2017
Продолжительность: 01:28:57-Перевод: Не требуется
Субтитры: нет
Оригинальная аудиодорожка: русский-Режиссер: Сарик Андреасян-В ролях: Антон Пампушный, Санжар Мади, Себастьян Сисак, Алина Ланина, Станислав Ширин, Валерия Шкирандо, Вячеслав Разбегаев, Александр Семенов, Владимир Бутенко, Мила Максимова
Описание: Во времена Холодной войны секретная организация «Патриот» создала отряд супергероев, в который вошли участники из различных советских республик. Долгие годы героям приходилось скрывать свою сущность, однако в тяжелые для страны времена они вновь берутся за дело.-Тип релиза: BDRip 720p
Контейнер: MKV-Видео: 1280x536 (2,40:1), 24 fps, MPEG-4 AVC, ~ 5412 kbps, 0.329 Bits/(Pixel*Frame)-Аудио: Russian: 48 kHz, DTS, 3/2 (L,C,R,l,r) + LFE ch, ~1509.00 kbps avg

MediaInfo

Общее
Уникальный идентификатор : 208009061637675951910929560149615433547 (0x9C7D168A85D148ABA41401FB0807D74B)
Полное имя : D:\Zashchitniki.BDRip.720p.mkv
Формат : Matroska
Версия формата : Version 2
Размер файла : 4,39 Гбайт
Продолжительность : 1 ч. 28 м.
Общий поток : 7062 Кбит/сек
Дата кодирования : UTC 2017-04-21 15:57:01
Программа кодирования : mkvmerge v5.6.0 ('Kenya Kane') built on May 27 2012 16:44:04
Библиотека кодирования : libebml v1.2.3 + libmatroska v1.3.0
Видео
Идентификатор : 1
Формат : AVC
Формат/Информация : Advanced Video Codec
Профиль формата : High@L4.1
Параметр CABAC формата : Да
Параметр ReFrames формата : 12 кадров
Идентификатор кодека : V_MPEG4/ISO/AVC
Продолжительность : 1 ч. 28 м.
Битрейт : 5412 Кбит/сек
Ширина : 1280 пикселей
Высота : 536 пикселей
Соотношение сторон : 2,40:1
Режим частоты кадров : Постоянный
Частота кадров : 24,000 кадра/сек
Цветовое пространство : YUV
Субдискретизация насыщенности : 4:2:0
Битовая глубина : 8 бит
Тип развёртки : Прогрессивная
Бит/(Пиксели*Кадры) : 0.329
Размер потока : 3,36 Гбайт (77%)
Библиотека кодирования : x264 core 148 r2744 b97ae06
Настройки программы : cabac=1 / ref=12 / deblock=1:-3:-3 / analyse=0x3:0x133 / me=umh / subme=11 / psy=1 / psy_rd=1.00:0.00 / mixed_ref=1 / me_range=48 / chroma_me=1 / trellis=2 / 8x8dct=1 / cqm=0 / deadzone=21,11 / fast_pskip=0 / chroma_qp_offset=-2 / threads=17 / lookahead_threads=2 / sliced_threads=0 / nr=0 / decimate=1 / interlaced=0 / bluray_compat=0 / constrained_intra=0 / bframes=9 / b_pyramid=2 / b_adapt=2 / b_bias=0 / direct=1 / weightb=1 / open_gop=0 / weightp=2 / keyint=240 / keyint_min=24 / scenecut=40 / intra_refresh=0 / rc_lookahead=60 / rc=crf / mbtree=0 / crf=16.3 / qcomp=0.60 / qpmin=0 / qpmax=69 / qpstep=4 / vbv_maxrate=50000 / vbv_bufsize=62500 / crf_max=0.0 / nal_hrd=none / filler=0 / ip_ratio=1.35 / pb_ratio=1.25 / aq=3:0.80
Язык : Russian
Default : Да
Forced : Нет
Аудио
Идентификатор : 2
Формат : DTS
Формат/Информация : Digital Theater Systems
Режим : 16
Параметр Endianness формата : Big
Идентификатор кодека : A_DTS
Продолжительность : 1 ч. 28 м.
Вид битрейта : Постоянный
Битрейт : 1509 Кбит/сек
Каналы : 6 каналов
Расположение каналов : Front: L C R, Side: L R, LFE
Частота : 48,0 КГц
Частота кадров : 93,750 кадра/сек (512 spf)
Битовая глубина : 24 бит
Метод сжатия : С потерями
Размер потока : 960 Мбайт (21%)
Язык : Russian
Default : Да
Forced : Нет
Меню
00:00:00.000 : ru:
00:00:52.208 : ru:
00:10:50.417 : ru:
00:21:24.375 : ru:
00:33:35.750 : ru:
00:44:08.208 : ru:
00:55:49.083 : ru:
01:06:44.417 : ru:
01:17:46.833 : ru:

Скриншоты





Вы не можете начинать темы
Вы не можете отвечать на сообщения
Вы не можете редактировать свои сообщения
Вы не можете удалять свои сообщения
Вы не можете голосовать в опросах
Вы не можете прикреплять файлы к сообщениям
Вы можете скачивать файлы