Канцелярская *** / Серии: 1-16 из 16 (Иван Глубоков, Алан Дзоциев) [2018,детектив, криминал,SATRip-AVC]


by Boris G ®
23-Дек-2018 15:26

[Цитировать]

Канцелярская *** / Серии: 1-16 из 16 (Иван Глубоков, Алан Дзоциев) [2018,детектив, криминал,SATRip-AVC]

Канцелярская ***
- Год выпуска: 2018
Страна: Россия | Триикс медиа
Жанр:детектив, криминал
Продолжительность: 00:50:00
Субтитры: нет- Режиссёр: Иван Глубоков, Алан Дзоциев
В ролях:Алексей Кравченко, Константин Стрельников, Ингрид Олеринская, Елена Полякова, Алексей Нилов, Вадим Сквирский, Роман Жилкин, Валерий Гришко, Андрей Павловец, Екатерина Рокотова, Сергей Кошонин, Андрей Полищук, Дмитрий Сутырин- Описание:
Сотрудника полицейского архива майора Андрея Вершинина переводят с повышением в приграничный город Портовый. Вершинину предстоит занять должность руководителя УВД вместо недавно погибшего полковника Авдеева. Нового начальника в Портовом встречают настороженно: подчинённые почти открыто с ним конфликтуют, а пресса и общественность, взволнованные недавней серией дерзких ограблений, просто возмущены этим назначением. Никто не верит, что бывшая «канцелярская ***» способна что-то изменить в криминальной обстановке.-
[box=#00db6a,#000000]Все раздачи сериала[/box][box=#00db6a,#FF0000]Без рекламы[/box]-- Качество: SATRip-AVC
Формат: MKV
Видео кодек: H.264
Аудио кодек: AC3
Видео: MPEG4 Video (H264), 720x340, 25fps,1600 Kbps,bit/pixel 0.261
Аудио : AC3 48000Hz, stereo, 192 kbps,2 ch

MediaInfo

Общее
Уникальный идентификатор : 171336389151375561819886699147071232315 (0x80E63030B12AC345A20E9551745E993B)
Полное имя : E:\Канцелярская ***\01 серия_Канцелярская крыса_rip by_Aleksan55.mkv
Формат : Matroska
Версия формата : Version 2
Размер файла : 643 Мбайт
Продолжительность : 50 м. 6 с.
Общий поток : 1794 Кбит/сек
Дата кодирования : UTC 2018-09-24 15:28:22
Программа кодирования : mkvmerge v7.8.0 ('River Man') 32bit built on Apr 3 2015 12:11:22
Библиотека кодирования : libebml v1.3.1 + libmatroska v1.4.2
Видео
Идентификатор : 1
Формат : AVC
Формат/Информация : Advanced Video Codec
Профиль формата : High@L4.1
Параметр CABAC формата : Да
Параметр ReFrames формата : 14 кадров
Идентификатор кодека : V_MPEG4/ISO/AVC
Продолжительность : 50 м. 6 с.
Битрейт : 1600 Кбит/сек
Ширина : 720 пикселей
Высота : 340 пикселей
Соотношение сторон : 2,118
Режим частоты кадров : Постоянный
Частота кадров : 25,000 кадров/сек
Цветовое пространство : YUV
Субдискретизация насыщенности : 4:2:0
Битовая глубина : 8 бит
Тип развёртки : Прогрессивная
Бит/(Пиксели*Кадры) : 0.261
Размер потока : 561 Мбайт (87%)
Библиотека кодирования : x264 core 146 r2538 121396c
Настройки программы : cabac=1 / ref=14 / deblock=1:-1:-1 / analyse=0x3:0x133 / me=umh / subme=9 / psy=1 / psy_rd=0.90:0.15 / mixed_ref=0 / me_range=32 / chroma_me=1 / trellis=2 / 8x8dct=1 / cqm=0 / deadzone=21,11 / fast_pskip=1 / chroma_qp_offset=-3 / threads=12 / lookahead_threads=1 / sliced_threads=0 / nr=0 / decimate=0 / interlaced=0 / bluray_compat=0 / constrained_intra=0 / bframes=14 / b_pyramid=2 / b_adapt=1 / b_bias=0 / direct=3 / weightb=1 / open_gop=0 / weightp=2 / keyint=250 / keyint_min=25 / scenecut=40 / intra_refresh=0 / rc_lookahead=40 / rc=2pass / mbtree=1 / bitrate=1600 / ratetol=1.0 / qcomp=0.60 / qpmin=0 / qpmax=39 / qpstep=4 / cplxblur=20.0 / qblur=0.5 / ip_ratio=1.40 / aq=1:1.00
Default : Да
Forced : Нет
Цветовой диапазон : Limited
Основные цвета : BT.601 PAL
Характеристики трансфера : BT.470 System B, BT.470 System G
Коэффициенты матрицы : BT.601
Аудио
Идентификатор : 2
Формат : AC-3
Формат/Информация : Audio Coding 3
Расширение режима : CM (complete main)
Параметр Endianness формата : Big
Идентификатор кодека : A_AC3
Продолжительность : 50 м. 6 с.
Вид битрейта : Постоянный
Битрейт : 192 Кбит/сек
Каналы : 2 канала
Расположение каналов : Front: L R
Частота : 48,0 КГц
Частота кадров : 31,250 кадров/сек (1536 spf)
Битовая глубина : 16 бит
Метод сжатия : С потерями
Размер потока : 68,8 Мбайт (11%)
Default : Да
Forced : Нет

Скриншоты

Торрент перезалит,исправлена 15 серия Прошу прощения.
Скачать

Скачать бесплатно и на максимальной скорости!

Как скачивать? · Что такое торрент? · Рейтинг и ограничения




Вы не можете начинать темы
Вы не можете отвечать на сообщения
Вы не можете редактировать свои сообщения
Вы не можете удалять свои сообщения
Вы не можете голосовать в опросах
Вы не можете прикреплять файлы к сообщениям
Вы не можете скачивать файлы