Предел / Limit (Suenobu Keiko) [12 из 12] [RUS(int)] [Япония, 2013, триллер, DTVRip] [RAW]


by Boris G ®
23-Dec-2018 15:28

[Quote]

Предел / Limit (Suenobu Keiko) [12 из 12] [RUS(int)] [Япония, 2013, триллер, DTVRip] [RAW]

Название: Предел
Оригинальное название: Limit
Год выхода: 2013
Жанр: триллер
Режиссер: Суэнобу Кейко / Suenobu Keiko
В ролях: Сакураба Нанами, Конно Мизуки, Цучия Тао, Камия Чиэко, Кудо Аяно, Ичиносе Хару, Ямашита Рио, Моришиге Ариса, Масуда Юка, Усуи Чикаге, Судзуки Кацухиро, Хината Харуаки, Кубота Масатака, Игараши Ватару, Ватанабе Иккей, Конно Хирокадзу
О фильме:
Школьный автобус со старшеклассницами попадает в автокатастрофу, в которой многие погибают... Лишь пятеро уцелевших девушек вынуждены бороться за выживание, оказавшись посреди дремучего леса...
Выпущено: Япония
Продолжительность: ~00:30:00 x 12
Озвучивание: Любительское (двухголосое) [deadsno & den904]
Файл:
Качество: HDTVRip
Формат: avi
Видео: 720x400 (1.80:1), 29.970 fps, XviD build 64 ~1077 kbps avg, 0.12 bit/pixel
Звук: 48 kHz, MPEG Layer 3, 2 ch, ~192.00 kbps avg (Rus / Jap)
Скачать: Сэмпл

MediaInfo

Общее
Полное имя : D:\Download\Predel\Prede1.1_01.L2.avi
Формат : AVI
Формат/Информация : Audio Video Interleave
Размер файла : 307 Мбайт
Продолжительность : 28 м.
Общий поток : 1485 Кбит/сек
Название фильма : СПАМ
Программа кодирования : XviD4PSP 6.0 / 54.4.100
Видео
Идентификатор : 0
Формат : MPEG-4 Visual
Профиль формата : Advanced Simple@L5
Параметр BVOP формата : 1
Параметр QPel формата : Нет
Параметр GMC формата : Без точки перехода
Параметр матрицы формата : Default (MPEG)
Идентификатор кодека : XVID
Идентификатор кодека/Подсказка : XviD
Продолжительность : 28 м.
Битрейт : 1079 Кбит/сек
Ширина : 720 пикселей
Высота : 400 пикселей
Соотношение сторон : 16:9
Частота кадров : 29,970 кадров/сек
Цветовое пространство : YUV
Субдискретизация насыщенности : 4:2:0
Битовая глубина : 8 бит
Тип развёртки : Прогрессивная
Метод сжатия : С потерями
Бит/(Пиксели*Кадры) : 0.125
Размер потока : 223 Мбайт (73%)
Заголовок : СПАМ
Библиотека кодирования : XviD 64
Аудио #1
Идентификатор : 1
Формат : MPEG Audio
Версия формата : Version 1
Профиль формата : Layer 3
Режим : Joint stereo
Расширение режима : MS Stereo
Идентификатор кодека : 55
Идентификатор кодека/Подсказка : MP3
Продолжительность : 28 м.
Вид битрейта : Постоянный
Битрейт : 192 Кбит/сек
Каналы : 2 канала
Частота : 48,0 КГц
Метод сжатия : С потерями
Размер потока : 39,7 Мбайт (13%)
Выравнивание : Соединение по промежуткам
Продолжительность промежутка : 24 мс. (0,72 видеокадр)
Заголовок : Влад и Снежа
Библиотека кодирования : LAME3.99.4
Аудио #2
Идентификатор : 2
Формат : MPEG Audio
Версия формата : Version 1
Профиль формата : Layer 3
Режим : Joint stereo
Расширение режима : MS Stereo
Идентификатор кодека : 55
Идентификатор кодека/Подсказка : MP3
Продолжительность : 28 м.
Вид битрейта : Постоянный
Битрейт : 192 Кбит/сек
Каналы : 2 канала
Частота : 48,0 КГц
Метод сжатия : С потерями
Размер потока : 39,7 Мбайт (13%)
Выравнивание : Соединение по промежуткам
Продолжительность промежутка : 24 мс. (0,72 видеокадр)
Библиотека кодирования : LAME3.99.4

Внимание! Раздача ведётся путём добавления новых выпусков

Внимание! Раздача ведётся путём добавления новых выпусков; при каждом добавлении создаётся новый торрент. Чтобы начать докачку нового выпуска, пользователям необходимо сделать следующее:
(1) остановить скачивание,
(2) удалить старый торрент у себя из клиента (старые серии удалять не надо),
(3) скачать новый торрент и запустить его у себя в клиенте вместо старого, при этом указать клиенту путь в старую папку куда и должно происходить скачивание новых выпусков.
Ваш клиент при этом должен произвести хеширование (проверку) старой папки (если не производит сам - помогите ему сделать это). В результате он будет докачивать только те выпуски, которых у Вас ещё нет. Старые выпуски при этом не удаляются, а продолжают раздаваться!
Eсли Вы уже удалили старые выпуски, то предотвратить их повторную закачку можно, сняв галочки в соответствующих местах при запуске нового торрента. По возможности, желательно не удалять старые выпуски как можно дольше, чтобы релизёр не только продолжал раздавать старые выпуски, но и смог сконцентрироваться на новых.

Скриншоты

Download

Download free and at maximum speed!

How to Download? · What is a torrent? · Ratings and Limitations




You cannot post new topics in this forum
You cannot reply to topics in this forum
You cannot edit your posts in this forum
You cannot delete your posts in this forum
You cannot vote in polls in this forum
You cannot attach files in this forum
You cannot download files in this forum