Верь мне / Серии: 1-4 из 4 (Ирина Громозда) [2018, мелодрама, детектив, WEBRip]


by Boris G ®
23-Dec-2018 15:26

[Quote]

Верь мне / Серии: 1-4 из 4 (Ирина Громозда) [2018, мелодрама, детектив, WEBRip]

Верь мне
Год выпуска: 2018
Производство: Компания "FILM.UA"
Жанр: мелодрама, детектив
Продолжительность: ~00:50:00 серия
Субтитры: нет
Режиссёр: Ирина Громозда
В ролях: Екатерина Рябова, Дмитрий Пчела, Вячеслав Довженко, Даниил Лакоза, Ирина Веренич-Островская, Марина Кошкина, Олеся Островская, Евгения Мякенькая, Дмитрий Сарансков, Сергей Комаровский
Описание: Инна Литвиненко с сыном Никитой приезжают в небольшой городок Павловск. Никита недоволен – за последние десять лет это уже четвертый новый город и мама никогда не обьясняет, зачем они все время переезжают. Тем не менее постепенно их жизнь налаживается: они снимают жилье у симпатичной одинокой женщины Таи, Инна находит работу в цветочном магазинчике, а Никита идет в школу и записывается в футбольную секцию. Тая случайно находит среди вещей своей квартирантки паспорт на имя Татьяны Корнеевой с фотографией Инны. И по странному совпадению, в свежей газете Тая видит объявление о том, что некая Татьяна Корнеева разыскивается в связи с открытием наследства. Тая звонит по объявлению...
Реклама: Нет.
Все раздачи сериала
Sample
Качество: WEBRip - Files-x
Формат: AVI
Видео кодек: XviD
Аудио кодек: AC3
Видео: 720x400 (1.80:1), 25 fps, XviD build 73 ~1750 kbps avg, 0.243 bit/pixel
Аудио: 48.0 kHz, AC3 Dolby Digital, 2/0 (L,R) ch, ~ 192 kbps

MI

General
Complete name : D:\Верь мне.2018.WEBRip.by.Nicodem.Files-x\01.Верь мне.2018.WEBRip.by.Nicodem.Files-x.avi
Format : AVI
Format/Info : Audio Video Interleave
File size : 697 MiB
Duration : 50mn 1s
Overall bit rate : 1 948 Kbps
Writing application : VirtualDubMod 1.5.10.3 | www.virtualdub-fr.org || (build 2550/release)
Writing library : VirtualDubMod build 2550/release
Video
ID : 0
Format : MPEG-4 Visual
Format profile : Advanced Simple@L5
Format settings, BVOP : 1
Format settings, QPel : No
Format settings, GMC : No warppoints
Format settings, Matrix : Custom
Codec ID : XVID
Codec ID/Hint : XviD
Duration : 50mn 1s
Bit rate : 1 747 Kbps
Width : 720 pixels
Height : 400 pixels
Display aspect ratio : 16:9
Frame rate : 25.000 fps
Color space : YUV
Chroma subsampling : 4:2:0
Bit depth : 8 bits
Scan type : Progressive
Compression mode : Lossy
Bits/(Pixel*Frame) : 0.243
Stream size : 625 MiB (90%)
Writing library : XviD 73
Audio
ID : 1
Format : AC-3
Format/Info : Audio Coding 3
Mode extension : CM (complete main)
Format settings, Endianness : Big
Codec ID : 2000
Duration : 50mn 1s
Bit rate mode : Constant
Bit rate : 192 Kbps
Channel count : 2 channels
Channel positions : Front: L R
Sampling rate : 48.0 KHz
Bit depth : 16 bits
Compression mode : Lossy
Stream size : 68.7 MiB (10%)
Alignment : Split accross interleaves
Interleave, duration : 40 ms (1.00 video frame)
Interleave, preload duration : 500 ms

Скриншоты


Download

Download free and at maximum speed!

How to Download? · What is a torrent? · Ratings and Limitations




You cannot post new topics in this forum
You cannot reply to topics in this forum
You cannot edit your posts in this forum
You cannot delete your posts in this forum
You cannot vote in polls in this forum
You cannot attach files in this forum
You cannot download files in this forum