О любви (Владимир Бортко) [2017, Россия, мелодрама, WEB-DL 1080p] + Original Rus


by Virtuoz ®
26-Мар-2018 08:23

[Цитировать]

О любви (Владимир Бортко) [2017, Россия, мелодрама, WEB-DL 1080p] + Original Rus

О любви
Страна: Россия
Студия: Studio 2-B-2 entertainment
Жанр: мелодрама
Год выпуска: 2017
Продолжительность: 01:34:43
Перевод: Не требуется
Субтитры: нет
Оригинальная аудиодорожка: русский
Режиссер: Владимир Бортко
В ролях: Анна Чиповская, Алексей Чадов, Мария Миронова, Александр Лыков, Дмитрий Певцов, Светлана Хомич, Ольга Павлюкова, Клавдия Белова
Описание: Петербурженка Нина — студентка, жена молодого красавца-профессора, который знает китайский язык и учения Поднебесной, похоже, лучше, чем окружающую российскую действительность. Нина убеждена, что супружеская верность и смирение и есть любовь. Но всё меняется, когда в её жизни появляется банкир Сергей…

Sample
Тип релиза: WEB-DL 1080p
Контейнер: MKV
Видео: MPEG4 AVC Video, H264, 16:9, 1920x1036, 24 fps, 5100 kbps
Аудио: Russian (AC3, 6 ch, 384 kbps, 16 bits, 48.0 KHz) - оригинал

MediaInfo

General
Unique ID : 211415412370711798875955170264200190166 (0x9F0D2099497454A28AA7AD8AFA3718D6)
Complete name : E:\О любви 2017 WEB-DL 1080p.mkv
Format : Matroska
Format version : Version 2
File size : 3.70 GiB
Duration : 1h 34mn
Overall bit rate : 5 595 Kbps
Encoded date : UTC 2017-04-16 18:12:16
Writing application : mkvmerge v8.3.0 ('Over the Horizon') 64bit
Writing library : libebml v1.3.1 + libmatroska v1.4.2
DURATION : 01:34:43.296000000
NUMBER_OF_FRAMES : 177603
NUMBER_OF_BYTES : 272798208
_STATISTICS_WRITING_APP : mkvmerge v8.3.0 ('Over the Horizon') 64bit
_STATISTICS_WRITING_DATE_UTC : 2017-04-16 18:12:16
_STATISTICS_TAGS : BPS DURATION NUMBER_OF_FRAMES NUMBER_OF_BYTES
Video
ID : 1
Format : AVC
Format/Info : Advanced Video Codec
Format profile : High@L4.0
Format settings, CABAC : Yes
Format settings, ReFrames : 4 frames
Codec ID : V_MPEG4/ISO/AVC
Duration : 1h 34mn
Bit rate : 5 100 Kbps
Width : 1 920 pixels
Height : 1 036 pixels
Display aspect ratio : 1.85:1
Frame rate mode : Constant
Frame rate : 24.000 fps
Color space : YUV
Chroma subsampling : 4:2:0
Bit depth : 8 bits
Scan type : Progressive
Bits/(Pixel*Frame) : 0.107
Stream size : 3.37 GiB (91%)
Language : English
Default : Yes
Forced : No
Color primaries : BT.709
Transfer characteristics : BT.709
Matrix coefficients : BT.709
Audio
ID : 2
Format : AC-3
Format/Info : Audio Coding 3
Mode extension : CM (complete main)
Format settings, Endianness : Big
Codec ID : A_AC3
Duration : 1h 34mn
Bit rate mode : Constant
Bit rate : 384 Kbps
Channel count : 6 channels
Channel positions : Front: L C R, Side: L R, LFE
Sampling rate : 48.0 KHz
Bit depth : 16 bits
Compression mode : Lossy
Stream size : 260 MiB (7%)
Language : Russian
Default : Yes
Forced : No
Menu
00:00:00.000 : en:Глава 1
00:08:35.875 : en:Глава 2
00:14:39.250 : en:Глава 3
00:19:33.041 : en:Глава 4
00:25:52.041 : en:Глава 5
00:31:20.291 : en:Глава 6
00:37:38.291 : en:Глава 7
00:46:07.874 : en:Глава 8
00:51:37.915 : en:Глава 9
00:57:39.373 : en:Глава 10
01:02:57.623 : en:Глава 11
01:08:00.123 : en:Глава 12
01:13:40.414 : en:Глава 13
01:19:37.080 : en:Глава 14
01:27:52.871 : en:Глава 15

Скриншоты


Скачать

Скачать бесплатно и на максимальной скорости!

Как скачивать? · Что такое торрент? · Рейтинг и ограничения




Вы не можете начинать темы
Вы не можете отвечать на сообщения
Вы не можете редактировать свои сообщения
Вы не можете удалять свои сообщения
Вы не можете голосовать в опросах
Вы не можете прикреплять файлы к сообщениям
Вы не можете скачивать файлы