Верь мне / Серии: 1-4 из 4 (Ирина Громозда) [2018, мелодрама, детектив, WEBRip-AVC]


by Boris G ®
23-Дек-2018 15:26

[Цитировать]

Верь мне / Серии: 1-4 из 4 (Ирина Громозда) [2018, мелодрама, детектив, WEBRip-AVC]

Верь мне
Год выпуска: 2018
Производство: Компания "FILM.UA"
Жанр: мелодрама, детектив
Продолжительность: ~00:50:00 серия
Субтитры: нет
Режиссёр: Ирина Громозда
В ролях: Екатерина Рябова, Дмитрий Пчела, Вячеслав Довженко, Даниил Лакоза, Ирина Веренич-Островская, Марина Кошкина, Олеся Островская, Евгения Мякенькая, Дмитрий Сарансков, Сергей Комаровский
Описание: Инна Литвиненко с сыном Никитой приезжают в небольшой городок Павловск. Никита недоволен – за последние десять лет это уже четвертый новый город и мама никогда не обьясняет, зачем они все время переезжают. Тем не менее постепенно их жизнь налаживается: они снимают жилье у симпатичной одинокой женщины Таи, Инна находит работу в цветочном магазинчике, а Никита идет в школу и записывается в футбольную секцию. Тая случайно находит среди вещей своей квартирантки паспорт на имя Татьяны Корнеевой с фотографией Инны. И по странному совпадению, в свежей газете Тая видит объявление о том, что некая Татьяна Корнеева разыскивается в связи с открытием наследства. Тая звонит по объявлению...
Реклама: Нет.
Все раздачи сериала
Sample
Качество: WEBRip-AVC - Серый1779
Формат: MKV
Видео кодек: H.264
Аудио кодек: AC3
Видео: MPEG4 AVC Video, H264, 16:9, 1024x576, 25 fps, ~1600 kbps, 0.109 bit/pixel
Аудио: AC3 Dolby Digital, 48.0 kHz, 2/0 (L,R) ch, 192 kbps

MI

General
Unique ID : 214418221732417875296913546441731291746 (0xA14F7287DE10543594BF42D762B73A62)
Complete name : D:\Верь мне.(2018).WEB-DLRip.(AVC).Files-x\01.Верь мне.(2018).WEB-DLRip.(AVC).by.Серый1779.Files-x.mkv
Format : Matroska
Format version : Version 2
File size : 642 MiB
Duration : 50mn 1s
Overall bit rate : 1 794 Kbps
Encoded date : UTC 2018-09-23 18:34:57
Writing application : mkvmerge v7.8.0 ('River Man') 32bit built on Apr 3 2015 12:11:22
Writing library : libebml v1.3.1 + libmatroska v1.4.2
Video
ID : 1
Format : AVC
Format/Info : Advanced Video Codec
Format profile : High@L4.1
Format settings, CABAC : Yes
Format settings, ReFrames : 9 frames
Codec ID : V_MPEG4/ISO/AVC
Duration : 50mn 1s
Bit rate : 1 600 Kbps
Width : 1 024 pixels
Height : 576 pixels
Display aspect ratio : 16:9
Frame rate mode : Constant
Frame rate : 25.000 fps
Color space : YUV
Chroma subsampling : 4:2:0
Bit depth : 8 bits
Scan type : Progressive
Bits/(Pixel*Frame) : 0.109
Stream size : 560 MiB (87%)
Writing library : x264 core 146 r2538 121396c
Encoding settings : cabac=1 / ref=9 / deblock=1:-2:-1 / analyse=0x3:0x133 / me=umh / subme=9 / psy=1 / psy_rd=1.00:0.15 / mixed_ref=1 / me_range=32 / chroma_me=1 / trellis=2 / 8x8dct=1 / cqm=0 / deadzone=21,11 / fast_pskip=0 / chroma_qp_offset=-3 / threads=18 / lookahead_threads=3 / sliced_threads=0 / nr=0 / decimate=1 / interlaced=0 / bluray_compat=0 / constrained_intra=0 / bframes=9 / b_pyramid=2 / b_adapt=2 / b_bias=0 / direct=1 / weightb=1 / open_gop=0 / weightp=2 / keyint=250 / keyint_min=25 / scenecut=40 / intra_refresh=0 / rc=2pass / mbtree=0 / bitrate=1600 / ratetol=1.0 / qcomp=0.60 / qpmin=0 / qpmax=69 / qpstep=4 / cplxblur=20.0 / qblur=0.5 / ip_ratio=1.40 / pb_ratio=1.30 / aq=2:1.00
Default : Yes
Forced : No
Color primaries : BT.709
Transfer characteristics : BT.709
Matrix coefficients : BT.709
Audio
ID : 2
Format : AC-3
Format/Info : Audio Coding 3
Mode extension : CM (complete main)
Format settings, Endianness : Big
Codec ID : A_AC3
Duration : 50mn 1s
Bit rate mode : Constant
Bit rate : 192 Kbps
Channel count : 2 channels
Channel positions : Front: L R
Sampling rate : 48.0 KHz
Bit depth : 16 bits
Compression mode : Lossy
Stream size : 68.7 MiB (11%)
Default : Yes
Forced : No

Скриншоты


Скачать

Скачать бесплатно и на максимальной скорости!

Как скачивать? · Что такое торрент? · Рейтинг и ограничения




Вы не можете начинать темы
Вы не можете отвечать на сообщения
Вы не можете редактировать свои сообщения
Вы не можете удалять свои сообщения
Вы не можете голосовать в опросах
Вы не можете прикреплять файлы к сообщениям
Вы не можете скачивать файлы