С пяти до семи (Владимир Щегольков) [2015, Россия, Латвия, драма, мелодрама, WEB-DL 1080p] + Original Rus


by Virtuoz ®
26-Мар-2018 08:23

[Цитировать]

С пяти до семи (Владимир Щегольков) [2015, Россия, Латвия, драма, мелодрама, WEB-DL 1080p] + Original Rus

С пяти до семи
Страна: Россия, Латвия
Студия: Amalgama Studio
Жанр: драма, мелодрама
Год выпуска: 2015
Продолжительность: 01:42:39
Перевод: Не требуется
Субтитры: нет
Оригинальная аудиодорожка: русский
Режиссер: Владимир Щегольков
В ролях: Дарья Мельникова, Александр Ильин мл., Дмитрий Муляр, Ирина Бутанаева, Амаду Мамадаков, Илзе Блауберга, Матин Умаров, Константин Шелестун, Иева Сеглиня, Эдгарс Озолиньш, Мадара Мелне-Томсоне, Гундарс Аболиньш, Дарья Екамасова
Описание: Он ждал Анну. В кафе. Полгода. С пяти до семи.
Но пришла другая. Кафе стало местом их встреч.
Он и Она. Их истории. Попытки освободиться от прежней любви и начать новую жизнь. Все придется решить здесь — за столиком кафе…


Sample
Тип релиза: WEB-DL 1080p
Контейнер: MKV
Видео: MPEG4 AVC Video, H264, 16:9, 1918x786, 24 fps, 4485 kbps
Аудио: Russian (AC3, 6 ch, 384 kbps, 16 bits, 48.0 KHz) - оригинал

MediaInfo

General
Unique ID : 220569355415622379044112116956849274581 (0xA5F01CD608F0FDDB981DBF829C5C7ED5)
Complete name : E:\Новая папка\С пяти до семи 2015 WEB-DL 1080p.mkv
Format : Matroska
Format version : Version 4 / Version 2
File size : 3.56 GiB
Duration : 1h 42mn
Overall bit rate : 4 968 Kbps
Encoded date : UTC 2017-03-27 20:15:19
Writing application : mkvmerge v8.3.0 ('Over the Horizon') 64bit
Writing library : libebml v1.3.1 + libmatroska v1.4.2
DURATION : 01:42:39.968000000
NUMBER_OF_FRAMES : 192499
NUMBER_OF_BYTES : 295678464
_STATISTICS_WRITING_APP : mkvmerge v8.3.0 ('Over the Horizon') 64bit
_STATISTICS_WRITING_DATE_UTC : 2017-03-27 20:15:19
_STATISTICS_TAGS : BPS DURATION NUMBER_OF_FRAMES NUMBER_OF_BYTES
Video
ID : 1
Format : AVC
Format/Info : Advanced Video Codec
Format profile : High@L4.0
Format settings, CABAC : Yes
Format settings, ReFrames : 5 frames
Codec ID : V_MPEG4/ISO/AVC
Duration : 1h 42mn
Bit rate : 4 485 Kbps
Width : 1 918 pixels
Height : 786 pixels
Display aspect ratio : 2.40:1
Frame rate mode : Constant
Frame rate : 24.000 fps
Color space : YUV
Chroma subsampling : 4:2:0
Bit depth : 8 bits
Scan type : Progressive
Bits/(Pixel*Frame) : 0.124
Stream size : 3.22 GiB (90%)
Language : English
Default : Yes
Forced : No
Color primaries : BT.709
Transfer characteristics : BT.709
Matrix coefficients : BT.709
Audio
ID : 2
Format : AC-3
Format/Info : Audio Coding 3
Mode extension : CM (complete main)
Format settings, Endianness : Big
Codec ID : A_AC3
Duration : 1h 42mn
Bit rate mode : Constant
Bit rate : 384 Kbps
Channel count : 6 channels
Channel positions : Front: L C R, Side: L R, LFE
Sampling rate : 48.0 KHz
Bit depth : 16 bits
Compression mode : Lossy
Stream size : 282 MiB (8%)
Language : Russian
Default : Yes
Forced : No
Menu
00:00:00.000 : en:Глава 1
00:04:57.416 : en:Глава 2
00:08:31.374 : en:Глава 3
00:15:03.749 : en:Глава 4
00:19:29.624 : en:Глава 5
00:27:58.332 : en:Глава 6
00:35:01.123 : en:Глава 7
00:43:01.956 : en:Глава 8
00:50:08.497 : en:Глава 9
00:56:20.955 : en:Глава 10
01:03:17.663 : en:Глава 11
01:09:05.538 : en:Глава 12
01:16:41.746 : en:Глава 13
01:21:54.912 : en:Глава 14
01:27:26.203 : en:Глава 15
01:33:54.994 : en:Глава 16

Скриншоты


Скачать

Скачать бесплатно и на максимальной скорости!

Как скачивать? · Что такое торрент? · Рейтинг и ограничения




Вы не можете начинать темы
Вы не можете отвечать на сообщения
Вы не можете редактировать свои сообщения
Вы не можете удалять свои сообщения
Вы не можете голосовать в опросах
Вы не можете прикреплять файлы к сообщениям
Вы не можете скачивать файлы