После тебя (Анна Матисон) [2016, Россия, драма, WEB-DL 1080p] + Original Rus


Размер:  3.95 GB   |    Зарегистрирован:  4 месяца 24 дня   |    Скачан:  0 раз

Полного источника не было: Никогда

by Virtuoz ®
26-Мар-2018 05:23

[Цитировать]

После тебя (Анна Матисон) [2016, Россия, драма, WEB-DL 1080p] + Original Rus

После тебя
Страна: Россия
Студия: Production Value WorldWide
Жанр: драма
Год выпуска: 2016
Продолжительность: 01:55:12
Перевод: Не требуется
Субтитры: нет
Оригинальная аудиодорожка: русский
Режиссер: Анна Матисон
В ролях: Сергей Безруков, Анастасия Безрукова, Алёна Бабенко, Карина Андоленко, Владимир Меньшов, Мария Смольникова, Тамара Акулова, Степан Куликов, Галина Бокашевская, Сергей Вершинин
Описание: «Чтобы сделать что-то, нужно или от рождения быть отчаянным, или чтобы обстоятельства стали отчаянными». Так думает Алексей Темников, поставленный жизнью в те самые отчаянные обстоятельства, когда важным остается лишь одно: «Что я оставлю после себя?» Вопрос, важный для любого мужчины, обострен до предела тем, что Темников — гениальный танцор, лишенный возможности танцевать. Травма, полученная на сцене 20 лет назад и прервавшая его карьеру, прогрессирует, и совсем скоро Темников не сможет ходить, что для него равносильно смерти. Помочь или просто поддержать Темникова никто не может, и не потому, что нет желающих, а потому, что он сам этого категорически не желает. Тяжелый характер и неоспоримый талант превратили его жизнь в тотальное одиночество.

Sample
Тип релиза: WEB-DL 1080p
Контейнер: MKV
Видео: MPEG4 AVC Video, H264, 16:9, 1920x806, 25 fps, 4427 kbps
Аудио: Russian (AC3, 6 ch, 384 kbps, 16 bits, 48.0 KHz) - оригинал

MediaInfo

General
Unique ID : 182033343504897921477080615519197623719 (0x88F258C233F12A15A0D81C0FAD1C75A7)
Complete name : E:\Новая папка\После тебя 2016 WEB-DL 1080p.mkv
Format : Matroska
Format version : Version 4 / Version 2
File size : 3.95 GiB
Duration : 1h 55mn
Overall bit rate : 4 909 Kbps
Encoded date : UTC 2017-04-15 17:22:51
Writing application : mkvmerge v6.1.0 ('Old Devil') built on Mar 2 2013 14:32:37
Writing library : libebml v1.3.0 + libmatroska v1.4.0
DURATION : 01:55:12.032000000
NUMBER_OF_FRAMES : 216001
NUMBER_OF_BYTES : 331777536
_STATISTICS_WRITING_APP : mkvmerge v10.0.0 ('To Drown In You') 64bit
_STATISTICS_WRITING_DATE_UTC : 2017-04-15 14:31:45
_STATISTICS_TAGS : BPS DURATION NUMBER_OF_FRAMES NUMBER_OF_BYTES
Video
ID : 1
Format : AVC
Format/Info : Advanced Video Codec
Format profile : High@L4.0
Format settings, CABAC : Yes
Format settings, ReFrames : 5 frames
Codec ID : V_MPEG4/ISO/AVC
Duration : 1h 55mn
Bit rate : 4 427 Kbps
Width : 1 920 pixels
Height : 806 pixels
Display aspect ratio : 2.40:1
Frame rate mode : Constant
Frame rate : 25.000 fps
Color space : YUV
Chroma subsampling : 4:2:0
Bit depth : 8 bits
Scan type : Progressive
Bits/(Pixel*Frame) : 0.114
Stream size : 3.56 GiB (90%)
Language : English
Default : Yes
Forced : No
Color primaries : BT.709
Transfer characteristics : BT.709
Matrix coefficients : BT.709
Audio
ID : 2
Format : AC-3
Format/Info : Audio Coding 3
Mode extension : CM (complete main)
Format settings, Endianness : Big
Codec ID : A_AC3
Duration : 1h 55mn
Bit rate mode : Constant
Bit rate : 384 Kbps
Channel count : 6 channels
Channel positions : Front: L C R, Side: L R, LFE
Sampling rate : 48.0 KHz
Bit depth : 16 bits
Compression mode : Lossy
Stream size : 316 MiB (8%)
Language : Russian
Default : Yes
Forced : No
Menu
00:00:00.000 : en:Глава 1
00:03:57.080 : en:Глава 2
00:11:55.680 : en:Глава 3
00:17:03.720 : en:Глава 4
00:22:51.720 : en:Глава 5
00:27:41.440 : en:Глава 6
00:33:19.440 : en:Глава 7
00:38:21.960 : en:Глава 8
00:41:45.160 : en:Глава 9
00:47:07.800 : en:Глава 10
00:53:41.320 : en:Глава 11
00:59:03.120 : en:Глава 12
01:04:42.560 : en:Глава 13
01:11:35.240 : en:Глава 14
01:18:54.040 : en:Глава 15
01:25:57.480 : en:Глава 16
01:32:33.560 : en:Глава 17
01:39:38.280 : en:Глава 18
01:46:19.280 : en:Глава 19

Скриншоты





Вы не можете начинать темы
Вы не можете отвечать на сообщения
Вы не можете редактировать свои сообщения
Вы не можете удалять свои сообщения
Вы не можете голосовать в опросах
Вы не можете прикреплять файлы к сообщениям
Вы можете скачивать файлы