Озорной поцелуй: Любовь в Токио / Itazura na Kiss Love in Tokyo [9/16] [Rus(int)] [Япония, 2013, романтика, комедия, школа, HDTVRip] [RAW] VO (GREEN TEA)


by Boris G ®
23-Дек-2018 15:28

[Цитировать]

Озорной поцелуй: Любовь в Токио / Itazura na Kiss Love in Tokyo [9/16] [Rus(int)] [Япония, 2013, романтика, комедия, школа, HDTVRip] [RAW] VO (GREEN TEA)

Озорной поцелуй: Любовь в Токио / Itazura na Kiss: Love in Tokyo Страна: Япония
Год выпуска: 2013
Жанр: романтика, комедия, школа
Продолжительность: 16 серий
Перевод: Одноголосый (закадровый) Екатерина Юрьева
СЭМПЛ http://multi-up.com/879718-В ролях: Honoka Miki - Kotoko Aihara
Yuki Furukawa - Naoki Irie
Yuki Yamada - Kinnosuke Ikezawa-Описание:
На церемонии начала учебного года в средней школе Аихара Котоко, ученица класса отстающих, встречает мальчика — красавца и гения школы по имени Ириэ Наоки, чей IQ равен 200. Конечно она сразу влюбляется в него. Котоко долго не может признаться Наоки в своих чувствах, в конце концов она пишет любовное письмо, но (о ужас!), Наоки прилюдно его отвергает. Но на этом беды Котоко не заканчиваются, ее новый дом, в который они с отцом вложили все, рушится из-за попадания метеорита. Теперь им предстоит переехать в другу отца Котоко - Ири-тяну, который оказывается отцом того самого Ириэ Наоки...(c) Melind@
Новая японская экранизация популярной манги "Озорной поцелуй"
Доп.информация:
Релиз подготовлен
Перевод: Melind@ с 7 серии ФСГ Альянс
Оформление постера: Михаил Золотов
Работа со звуком: Екатерина Юрьева-Озвучивается при поддержке зрителей GREEN TEA-Неотключаемые субтитры: Без хардсаба
Качество видео: TVRip
Формат: AVI
Видео: XviD, 720*400(16:9), 1500 kbps, 29.970 fps
Аудио: MP3, 192 kbps, 2 ch, 48.0 KHz
Язык: Русский в составе контейнера
НОВОСТИ
24.07. Добавлена 2 серия
29.07. Добавлена 3 серия

19.09 Добавлены 4-9 серии.-Отличия от других раздач
http://rutracker.org/forum/viewtopic.php?t=4458812 - наличие озвучки
http://rutracker.org/forum/viewtopic.php?t=4413433 - наличие озвучки, другое качество видео-

Медиаинфо

General
Complete name : E:\[GREEN TEA] Озорной поцелуй.Любовь в Токио\[GREEN TEA] Озорной поцелуй- Любовь в Токио ep1.avi
Format : AVI
Format/Info : Audio Video Interleave
File size : 609 MiB
Duration : 50mn 1s
Overall bit rate : 1 703 Kbps
Writing application : VirtualDubMod 1.5.10.2 (build 2540/release)
Writing library : VirtualDubMod build 2540/release
Video
ID : 0
Format : MPEG-4 Visual
Format profile : Advanced Simple@L5
Format settings, BVOP : 1
Format settings, QPel : No
Format settings, GMC : No warppoints
Format settings, Matrix : Default (H.263)
Codec ID : XVID
Codec ID/Hint : XviD
Duration : 50mn 1s
Bit rate : 1 500 Kbps
Width : 720 pixels
Height : 400 pixels
Display aspect ratio : 16:9
Frame rate : 29.970 fps
Color space : YUV
Chroma subsampling : 4:2:0
Bit depth : 8 bits
Scan type : Progressive
Compression mode : Lossy
Bits/(Pixel*Frame) : 0.174
Stream size : 537 MiB (88%)
Writing library : XviD 58
Audio
ID : 1
Format : MPEG Audio
Format version : Version 1
Format profile : Layer 3
Mode : Joint stereo
Codec ID : 55
Codec ID/Hint : MP3
Duration : 50mn 1s
Bit rate mode : Constant
Bit rate : 192 Kbps
Channel(s) : 2 channels
Sampling rate : 48.0 KHz
Compression mode : Lossy
Stream size : 68.7 MiB (11%)
Alignment : Aligned on interleaves
Interleave, duration : 33 ms (1.00 video frame)
Interleave, preload duration : 504 ms

Скриншоты

Скачать

Скачать бесплатно и на максимальной скорости!

Как скачивать? · Что такое торрент? · Рейтинг и ограничения




Вы не можете начинать темы
Вы не можете отвечать на сообщения
Вы не можете редактировать свои сообщения
Вы не можете удалять свои сообщения
Вы не можете голосовать в опросах
Вы не можете прикреплять файлы к сообщениям
Вы не можете скачивать файлы