Мое сердце с тобой / Серии: 1-4 из 4 (Сергей Лялин) [2018, мелодрама, WEBRip]


by Boris G ®
23-Dec-2018 15:26

[Quote]

Мое сердце с тобой / Серии: 1-4 из 4 (Сергей Лялин) [2018, мелодрама, WEBRip]

Мое сердце с тобой
Год выпуска: 2018
Производство: Кинокомпания «Русское»
Жанр: мелодрама
Продолжительность: ~00:45:00 серия
Субтитры: нет
Режиссёр: Сергей Лялин
В ролях: Ольга Павловец, Алексей Фатеев, Илья Оболонков, Аделина Коблова, Елена Вербицкая, Ева Авеева, Даниил Вершинин, Анастасия Дубровина
Описание: Скромная учительница математики Ольга всю себя посвящает семье — мужу Вадиму и дочке Лене. Вадим же за ее спиной живет в свое удовольствие, крутит романы и в один момент совсем уходит из семьи к любовнице. Ольга остается одна с маленькой дочкой без средств к существованию. Она вынуждена подать на алименты, но муж обнаруживает поразительное обстоятельство — оказывается Леночка — не его дочь! Ольга раздавлена такой незаслуженной клеветой, ведь она знает, что была верна мужу. Но самое страшное испытание ждет ее впереди, когда Лена тяжело заболевает. Ольга готова стать донором, но в больнице ей сообщают, что все эти годы она воспитывала чужого ребенка…

Реклама: Нет.
Кинопоиск
Все раздачи сериала
Sample
Качество: WEBRip - Files-x
Формат: AVI
Видео кодек: XviD
Аудио кодек: AC3
Видео: 720x400 (1.80:1), 25 fps, XviD build 73 ~1950 kbps avg, 0.271 bit/pixel
Аудио: 48.0 kHz, AC3 Dolby Digital, 2/0 (L,R) ch, ~ 192 kbps

MI

General
Complete name : D:\Мое сердце с тобой (2018).WEB-DLRip.Files-x\1.Мое сердце с тобой (2018).WEB-DLRip.Files-x.avi
Format : AVI
Format/Info : Audio Video Interleave
File size : 1.36 GiB
Duration : 1h 30mn
Overall bit rate : 2 154 Kbps
Writing application : VirtualDubMod 1.5.10.3 | www.virtualdub-fr.org || (build 2550/release)
Writing library : VirtualDubMod build 2550/release
Video
ID : 0
Format : MPEG-4 Visual
Format profile : Advanced Simple@L5
Format settings, BVOP : 1
Format settings, QPel : No
Format settings, GMC : No warppoints
Format settings, Matrix : Custom
Codec ID : XVID
Codec ID/Hint : XviD
Duration : 1h 30mn
Bit rate : 1 953 Kbps
Width : 720 pixels
Height : 400 pixels
Display aspect ratio : 16:9
Frame rate : 25.000 fps
Color space : YUV
Chroma subsampling : 4:2:0
Bit depth : 8 bits
Scan type : Progressive
Compression mode : Lossy
Bits/(Pixel*Frame) : 0.271
Stream size : 1.24 GiB (91%)
Writing library : XviD 73
Audio
ID : 1
Format : AC-3
Format/Info : Audio Coding 3
Mode extension : CM (complete main)
Format settings, Endianness : Big
Codec ID : 2000
Duration : 1h 30mn
Bit rate mode : Constant
Bit rate : 192 Kbps
Channel count : 2 channels
Channel positions : Front: L R
Sampling rate : 48.0 KHz
Bit depth : 16 bits
Compression mode : Lossy
Stream size : 124 MiB (9%)
Alignment : Split accross interleaves
Interleave, duration : 40 ms (1.00 video frame)
Interleave, preload duration : 500 ms

Скриншоты


Download

Download free and at maximum speed!

How to Download? · What is a torrent? · Ratings and Limitations




You cannot post new topics in this forum
You cannot reply to topics in this forum
You cannot edit your posts in this forum
You cannot delete your posts in this forum
You cannot vote in polls in this forum
You cannot attach files in this forum
You cannot download files in this forum