Дедушка в подарок (Артур Виденмеер) [2009, Россия, Украина, мелодрама, HDTV 1080i] Original Rus


Размер:  7.64 GB   |    Зарегистрирован:  5 месяцев 23 дня   |    Скачан:  0 раз

Полного источника не было: Никогда

by Virtuoz ®
26-Мар-2018 05:23

[Цитировать]

Дедушка в подарок (Артур Виденмеер) [2009, Россия, Украина, мелодрама, HDTV 1080i] Original Rus

Дедушка в подарок
Страна: Россия, Украина
Студия: Star Media
Жанр: Мелодрама
Год выпуска: 2009
Продолжительность: 01:25:51
Перевод: Не требуется
Субтитры: Нет
Оригинальная аудио дорожка: Русский
Режиссёр: Артур Виденмеер
В ролях: Иван Чуваткин, Евгения Бурдихина, Николай Иванов, Мария Миронова, Александр Михайлов, Константин Соловьев, Александр Тютин, Виталий Емашов, Лариса Маркина
Описание: Канун Нового года. Дед Мороз на новогодней ярмарке развлекает детишек, ему 66 лет, похож на сказочного Деда Мороза. Он помогает 7-ми летнему мальчику Антипу, и тот решает, что Дед Мороз настоящий. Мама (Серафима) и папа (Андрей) живут в предразводном состоянии, они постоянно заняты работой, на ребенка нет времени. Антип со взрослой серьезностью предпринимает попытки сохранить семью, и привлекает к этому делу Деда Мороза...
Доп. информация:
Автор релиза -
Источник аудио и видео - HDTV 1080i TS - моя запись с канала Наш Кинороман HD



Сэмпл: https://yadi.sk/i/W7SKx7cO3GnXRM
Рекламы нет!
Качество видео: HDTV 1080i
Формат видео: TS
Видео: MPEG-4 AVC, 1920x1080 (16:9), 25.000 fps, 11500 kbps, 0.221 bit/pixel
Аудио 1: Русский AC3, 48000 Гц, 6ch, 448 kbps
Аудио 2: Русский MP2, 48000 Гц, 2ch, 192 kbps

MediaInfo

Общее
Идентификатор : 1 (0x1)
Полное имя : D:\Дедушка.в.подарок.2009.HDTV.1080i-ylnian.ts
Формат : MPEG-TS
Размер файла : 7,64 Гбайт
Продолжительность : 1 ч. 25 м.
Режим общего битрейта : Переменный
Общий поток : 12,7 Мбит/сек
Видео
Идентификатор : 3551 (0xDDF)
Идентификатор меню : 17015 (0x4277)
Формат : AVC
Формат/Информация : Advanced Video Codec
Профиль формата : Main@L4
Параметр CABAC формата : Да
Параметр ReFrames формата : 4 кадра
Параметр GOP формата : M=1, N=32
Идентификатор кодека : 27
Продолжительность : 1 ч. 25 м.
Битрейт : 11,5 Мбит/сек
Ширина : 1920 пикселей
Высота : 1080 пикселей
Соотношение сторон : 16:9
Частота кадров : 25,000 кадров/сек
Цветовое пространство : YUV
Субдискретизация насыщенности : 4:2:0
Битовая глубина : 8 бит
Тип развёртки : Чересстрочная
Метод сохранения типа развёртки : Раздельные поля
Порядок развёртки : Верхнее поле первое
Бит/(Пиксели*Кадры) : 0.221
Размер потока : 6,87 Гбайт (90%)
Цветовой диапазон : Limited
Основные цвета : BT.709
Характеристики трансфера : BT.709
Коэффициенты матрицы : BT.709
Аудио #1
Идентификатор : 3552 (0xDE0)
Идентификатор меню : 17015 (0x4277)
Формат : MPEG Audio
Версия формата : Version 1
Профиль формата : Layer 2
Идентификатор кодека : 3
Продолжительность : 1 ч. 25 м.
Вид битрейта : Постоянный
Битрейт : 192 Кбит/сек
Каналы : 2 канала
Частота : 48,0 КГц
Метод сжатия : С потерями
Размер потока : 118 Мбайт (2%)
Язык : Russian
Аудио #2
Идентификатор : 3553 (0xDE1)
Идентификатор меню : 17015 (0x4277)
Формат : AC-3
Формат/Информация : Audio Coding 3
Параметр Endianness формата : Big
Идентификатор кодека : 6
Продолжительность : 1 ч. 25 м.
Вид битрейта : Постоянный
Битрейт : 448 Кбит/сек
Каналы : 6 каналов
Расположение каналов : Front: L C R, Side: L R, LFE
Частота : 48,0 КГц
Частота кадров : 31,250 кадров/сек (1536 spf)
Битовая глубина : 16 бит
Метод сжатия : С потерями
Размер потока : 275 Мбайт (4%)
Язык : Russian
ServiceKind/String : Complete Main

Скриншот c названием фильма




Вы не можете начинать темы
Вы не можете отвечать на сообщения
Вы не можете редактировать свои сообщения
Вы не можете удалять свои сообщения
Вы не можете голосовать в опросах
Вы не можете прикреплять файлы к сообщениям
Вы можете скачивать файлы