Мое сердце с тобой / Серии: 1-4 из 4 (Сергей Лялин) [2018, мелодрама, HDTVRip 720p]


by Boris G ®
23-Дек-2018 15:26

[Цитировать]

Мое сердце с тобой / Серии: 1-4 из 4 (Сергей Лялин) [2018, мелодрама, HDTVRip 720p]

Мое сердце с тобой
Год выпуска: 2018
Производство: Кинокомпания «Русское»
Жанр: мелодрама
Продолжительность: ~00:45:00 серия
Субтитры: нет
Режиссёр: Сергей Лялин
В ролях: Ольга Павловец, Алексей Фатеев, Илья Оболонков, Аделина Коблова, Елена Вербицкая, Ева Авеева, Даниил Вершинин, Анастасия Дубровина
Описание: Скромная учительница математики Ольга всю себя посвящает семье — мужу Вадиму и дочке Лене. Вадим же за ее спиной живет в свое удовольствие, крутит романы и в один момент совсем уходит из семьи к любовнице. Ольга остается одна с маленькой дочкой без средств к существованию. Она вынуждена подать на алименты, но муж обнаруживает поразительное обстоятельство — оказывается Леночка — не его дочь! Ольга раздавлена такой незаслуженной клеветой, ведь она знает, что была верна мужу. Но самое страшное испытание ждет ее впереди, когда Лена тяжело заболевает. Ольга готова стать донором, но в больнице ей сообщают, что все эти годы она воспитывала чужого ребенка…

Реклама: Нет.
Кинопоиск
Все раздачи сериала
Sample
Качество: HDTVRip 720p - Nikolspup
Формат: MKV
Видео кодек: H.264
Аудио кодек: AC3
Видео: MPEG4 AVC Video, H264, 16:9, 1280x720, 25 fps, ~4000 kbps, 0.174 bit/pixel
Аудио: AC3 Dolby Digital, 48 kHz, 2/0 (L,R) ch, 192 kbp

MI

General
Unique ID : 248391279984465858301270045219476200934 (0xBADE6B9FA40D123990F932E929FFDDE6)
Complete name : D:\Moe.serdce.s.toboj.2018.HDTVRip.(720p).Nikolspup\Moyo.serdce.s.toboj.(01.seriya.iz.02).2018.HDTVRip.(720p).Nikolspup.mkv
Format : Matroska
Format version : Version 4 / Version 2
File size : 2.64 GiB
Duration : 1h 29mn
Overall bit rate : 4 193 Kbps
Encoded date : UTC 2018-09-23 06:42:15
Writing application : mkvmerge v7.8.0 ('River Man') 32bit built on Mar 27 2015 16:18:02
Writing library : libebml v1.3.1 + libmatroska v1.4.2
DURATION : 01:29:59.264000000
NUMBER_OF_FRAMES : 168727
NUMBER_OF_BYTES : 129582336
_STATISTICS_WRITING_APP : mkvmerge v7.8.0 ('River Man') 32bit built on Mar 27 2015 16:18:02
_STATISTICS_WRITING_DATE_UTC : 2018-09-23 06:42:15
_STATISTICS_TAGS : BPS DURATION NUMBER_OF_FRAMES NUMBER_OF_BYTES
Video
ID : 1
Format : AVC
Format/Info : Advanced Video Codec
Format profile : High@L4.1
Format settings, CABAC : Yes
Format settings, ReFrames : 9 frames
Codec ID : V_MPEG4/ISO/AVC
Duration : 1h 29mn
Bit rate : 4 000 Kbps
Width : 1 280 pixels
Height : 720 pixels
Display aspect ratio : 16:9
Frame rate mode : Constant
Frame rate : 25.000 fps
Color space : YUV
Chroma subsampling : 4:2:0
Bit depth : 8 bits
Scan type : Progressive
Bits/(Pixel*Frame) : 0.174
Stream size : 2.46 GiB (93%)
Writing library : x264 core 146 r2538 121396c
Encoding settings : cabac=1 / ref=9 / deblock=1:-2:-1 / analyse=0x3:0x133 / me=umh / subme=9 / psy=1 / psy_rd=1.00:0.20 / mixed_ref=1 / me_range=32 / chroma_me=1 / trellis=2 / 8x8dct=1 / cqm=0 / deadzone=21,11 / fast_pskip=1 / chroma_qp_offset=-3 / threads=16 / lookahead_threads=8 / sliced_threads=0 / nr=0 / decimate=1 / interlaced=0 / bluray_compat=0 / constrained_intra=0 / bframes=11 / b_pyramid=2 / b_adapt=2 / b_bias=0 / direct=1 / weightb=1 / open_gop=0 / weightp=2 / keyint=250 / keyint_min=25 / scenecut=40 / intra_refresh=0 / rc=2pass / mbtree=0 / bitrate=4000 / ratetol=1.0 / qcomp=0.60 / qpmin=0 / qpmax=69 / qpstep=4 / cplxblur=20.0 / qblur=0.5 / ip_ratio=1.40 / pb_ratio=1.30 / aq=3:1.00
Default : No
Forced : No
DURATION : 01:29:59.240000000
NUMBER_OF_FRAMES : 134981
NUMBER_OF_BYTES : 2699407609
_STATISTICS_WRITING_APP : mkvmerge v7.8.0 ('River Man') 32bit built on Mar 27 2015 16:18:02
_STATISTICS_WRITING_DATE_UTC : 2018-09-23 06:42:15
_STATISTICS_TAGS : BPS DURATION NUMBER_OF_FRAMES NUMBER_OF_BYTES
Color primaries : BT.709
Transfer characteristics : BT.709
Matrix coefficients : BT.709
Audio
ID : 2
Format : AC-3
Format/Info : Audio Coding 3
Mode extension : CM (complete main)
Format settings, Endianness : Big
Codec ID : A_AC3
Duration : 1h 29mn
Bit rate mode : Constant
Bit rate : 192 Kbps
Channel count : 2 channels
Channel positions : Front: L R
Sampling rate : 48.0 KHz
Bit depth : 16 bits
Compression mode : Lossy
Stream size : 124 MiB (5%)
Language : Russian
Default : Yes
Forced : Yes

Скриншоты


Скачать

Скачать бесплатно и на максимальной скорости!

Как скачивать? · Что такое торрент? · Рейтинг и ограничения




Вы не можете начинать темы
Вы не можете отвечать на сообщения
Вы не можете редактировать свои сообщения
Вы не можете удалять свои сообщения
Вы не можете голосовать в опросах
Вы не можете прикреплять файлы к сообщениям
Вы не можете скачивать файлы