Удача напрокат (Дмитрий Сорокин) [2012, Россия, комедия, мелодрама, HDTV 1080i] Original Rus


Размер:  5.35 GB   |    Зарегистрирован:  5 месяцев 23 дня   |    Скачан:  0 раз

Полного источника не было: Никогда

by Virtuoz ®
26-Мар-2018 05:23

[Цитировать]

Удача напрокат (Дмитрий Сорокин) [2012, Россия, комедия, мелодрама, HDTV 1080i] Original Rus

Удача напрокат
Страна: Россия
Студия: Star Media
Жанр: Комедия, мелодрама
Год выпуска: 2012
Продолжительность: 01:29:27
Перевод: Не требуется
Субтитры: Нет
Оригинальная аудио дорожка: Русский
Режиссёр: Дмитрий Сорокин
В ролях: Ирина Медведева, Дмитрий Богданов, Ирина Пулина, Юрий Ваксман, Максим Пинскер, Константин Третьяков, Ксения Скакун, Михаил Панюков, Денис Харитонов, Зинаида Матросова
Описание: В жизни Кристины все прекрасно: жених - красавец, богатый наследник Николай, отличная работа в крупной компании. Через пару месяцев Кристине исполнится тридцать. Кристина ждет дня рождения с особым трепетом: когда-то старая гадалка сказала ей, что если она встретит свое 30-летие успешной, то и дальше ей будет сопутствовать удача, а если нет, то ходить Кристине одинокой и бедной до конца своих дней. На память гадалка дала девушке медальон, который должен был охранять ее от невзгод. Но по роковому стечению обстоятельств коллега Кристины, неудачник Сергей, разбивает ее счастливый медальон. И сказочная жизнь Кристины превращается в ад: она заваливает проект и застает жениха с другой женщиной. Кристине предстоит пройти через массу неприятностей, чтобы понять, что главное в жизни не мистические предсказания и волшебные амулеты, а близкие люди, которые ее окружают.
Доп. информация:
Автор релиза -
Источник аудио и видео - HDTV 1080i TS - моя запись с канала Наш Кинороман HD



Сэмпл: https://yadi.sk/i/Su35JWx-3GTkWg
Рекламы нет!
Качество видео: HDTV 1080i
Формат видео: TS
Видео: MPEG-4 AVC, 1920x1080 (16:9), 25.000 fps, 7491 kbps, 0.144 bit/pixel
Аудио 1: Русский AC3, 48000 Гц, 6ch, 448 kbps
Аудио 2: Русский MP2, 48000 Гц, 2ch, 192 kbps

MediaInfo

Общее
Идентификатор : 1 (0x1)
Полное имя : D:\Удача.напрокат.2012.HDTV.1080i-ylnian.ts
Формат : MPEG-TS
Размер файла : 5,35 Гбайт
Продолжительность : 1 ч. 29 м.
Режим общего битрейта : Переменный
Общий поток : 8560 Кбит/сек
Видео
Идентификатор : 3551 (0xDDF)
Идентификатор меню : 17015 (0x4277)
Формат : AVC
Формат/Информация : Advanced Video Codec
Профиль формата : Main@L4
Параметр CABAC формата : Да
Параметр ReFrames формата : 4 кадра
Параметр GOP формата : M=1, N=32
Идентификатор кодека : 27
Продолжительность : 1 ч. 29 м.
Битрейт : 7491 Кбит/сек
Ширина : 1920 пикселей
Высота : 1080 пикселей
Соотношение сторон : 16:9
Частота кадров : 25,000 кадров/сек
Цветовое пространство : YUV
Субдискретизация насыщенности : 4:2:0
Битовая глубина : 8 бит
Тип развёртки : Чересстрочная
Метод сохранения типа развёртки : Раздельные поля
Порядок развёртки : Верхнее поле первое
Бит/(Пиксели*Кадры) : 0.144
Размер потока : 4,68 Гбайт (88%)
Цветовой диапазон : Limited
Основные цвета : BT.709
Характеристики трансфера : BT.709
Коэффициенты матрицы : BT.709
Аудио #1
Идентификатор : 3552 (0xDE0)
Идентификатор меню : 17015 (0x4277)
Формат : MPEG Audio
Версия формата : Version 1
Профиль формата : Layer 2
Идентификатор кодека : 3
Продолжительность : 1 ч. 29 м.
Вид битрейта : Постоянный
Битрейт : 192 Кбит/сек
Каналы : 2 канала
Частота : 48,0 КГц
Метод сжатия : С потерями
Размер потока : 123 Мбайт (2%)
Язык : Russian
Аудио #2
Идентификатор : 3553 (0xDE1)
Идентификатор меню : 17015 (0x4277)
Формат : AC-3
Формат/Информация : Audio Coding 3
Параметр Endianness формата : Big
Идентификатор кодека : 6
Продолжительность : 1 ч. 29 м.
Вид битрейта : Постоянный
Битрейт : 448 Кбит/сек
Каналы : 6 каналов
Расположение каналов : Front: L C R, Side: L R, LFE
Частота : 48,0 КГц
Частота кадров : 31,250 кадров/сек (1536 spf)
Битовая глубина : 16 бит
Метод сжатия : С потерями
Размер потока : 287 Мбайт (5%)
Язык : Russian
ServiceKind/String : Complete Main

Скриншот c названием фильма




Вы не можете начинать темы
Вы не можете отвечать на сообщения
Вы не можете редактировать свои сообщения
Вы не можете удалять свои сообщения
Вы не можете голосовать в опросах
Вы не можете прикреплять файлы к сообщениям
Вы можете скачивать файлы