Сорок розовых кустов / Сезон: 1 / Серии: 1-4 из 4 (Олег Штром) [2018, мелодрама, WEBRip]


by Boris G ®
23-Dec-2018 15:26

[Quote]

Сорок розовых кустов / Сезон: 1 / Серии: 1-4 из 4 (Олег Штром) [2018, мелодрама, WEBRip]

Сорок розовых кустов
Год выпуска: 2018
Производство: Россия MAGIC FACTORY
Жанр: мелодрама
Продолжительность: 00:46:00
Субтитры: нет
Режиссёр: Олег Штром
В ролях: Эмилия Спивак, Елизавета Арзамасова, Екатерина Соломатина, Павел Трубинер, Любовь Матюшина, Вахтанг Беридзе, Дмитрий Бедерин, Максим Битюков
Описание: На горной дороге падает в пропасть маршрутное такси. Выжить в такой катастрофе почти невозможно, но три пассажирки чудом остаются в живых. Более того, они почти невредимы. В больнице, где женщины проводят ночь, они решают, что судьба что-то хочет им сказать этим чудесным спасением. И действительно: за поворотом, на котором их поджидала смерть, каждую из них встречают потрясения и перемены. Саша получает флешку с таинственным посланием, поэтесса Ива влюбляется в рыбака, а Анна теряет надежду на женское счастье. Трём женщинам предстоит исправить прежние ошибки, совершить много добрых дел, встретить настоящую любовь и даже посадить сорок розовых кустов
Реклама: Нет
Сэмпл: https://www.sendspace.com/file/igkgk1
Качество: WEBRip
Формат: AVI
Видео кодек: XviD
Аудио кодек: AC3
Видео: XVID; 1499 Кбит/сек; 720х400 (16:9); 25,000 кадров/сек; Бит/(Пиксели*Кадры): 0.208
Аудио: AC-3; 192 Кбит/сек; 2 канала; 48,0 КГц

MI

Общее
Полное имя : D:\закачки\Сорок розовых кустов (2018).WEB-DLRip.Files-x\2.Сорок розовых кустов (2018).WEB-DLRip.Files-x.avi
Формат : AVI
Формат/Информация : Audio Video Interleave
Размер файла : 557 Мбайт
Продолжительность : 45 м. 48 с.
Общий поток : 1701 Кбит/сек
Программа кодирования : VirtualDubMod 1.5.10.3 | www.virtualdub-fr.org || (build 2550/release)
Библиотека кодирования : VirtualDubMod build 2550/release
Видео
Идентификатор : 0
Формат : MPEG-4 Visual
Профиль формата : Advanced Simple@L5
Настройки формата : BVOP1 / Custom Matrix
Параметр BVOP формата : 1
Параметр QPel формата : Нет
Параметр GMC формата : Без точки перехода
Параметр матрицы формата : Выборочная
Идентификатор кодека : XVID
Идентификатор кодека/Подсказка : XviD
Продолжительность : 45 м. 48 с.
Битрейт : 1499 Кбит/сек
Ширина : 720 пикселей
Высота : 400 пикселей
Соотношение сторон : 16:9
Частота кадров : 25,000 кадров/сек
Цветовое пространство : YUV
Субдискретизация насыщенности : 4:2:0
Битовая глубина : 8 бит
Тип развёртки : Прогрессивная
Метод сжатия : С потерями
Бит/(Пиксели*Кадры) : 0.208
Размер потока : 491 Мбайт (88%)
Библиотека кодирования : XviD 73
Аудио
Идентификатор : 1
Формат : AC-3
Формат/Информация : Audio Coding 3
Идентификатор кодека : 2000
Продолжительность : 45 м. 48 с.
Вид битрейта : Постоянный
Битрейт : 192 Кбит/сек
Каналы : 2 канала
Расположение каналов : Front: L R
Частота : 48,0 КГц
Частота кадров : 31,250 кадров/сек (1536 SPF)
Битовая глубина : 16 бит
Метод сжатия : С потерями
Размер потока : 62,9 Мбайт (11%)
Выравнивание : Разделение по промежуткам
Продолжительность промежутка : 40 мс. (1,00 видеокадр)
Время предзагрузки промежутка : 500 мс.
ServiceKind/String : Complete Main

Скриншоты

Предыдущие и альтернативные раздачи
Релиз-группы
Download

Download free and at maximum speed!

How to Download? · What is a torrent? · Ratings and Limitations




You cannot post new topics in this forum
You cannot reply to topics in this forum
You cannot edit your posts in this forum
You cannot delete your posts in this forum
You cannot vote in polls in this forum
You cannot attach files in this forum
You cannot download files in this forum