Бабоньки (Антон Коваленко) [2016, Россия, комедия, HDTV 1080i] Original Rus


by Virtuoz ®
26-Мар-2018 08:23

[Цитировать]

Бабоньки (Антон Коваленко) [2016, Россия, комедия, HDTV 1080i] Original Rus

Бабоньки
Страна: Россия
Студия: Кинокомпания Медиа 77, Межрегиональная группа ипотеки и сервиса
Жанр: Комедия
Год выпуска: 2016
Продолжительность: 01:29:58
Перевод: Не требуется
Субтитры: Нет
Оригинальная аудио дорожка: Русский
Режиссёр: Антон Коваленко
В ролях: Елена Захарова, Ирина Серова, Алёна Галлиардт, Анна Воронова, Надежда Жарикова, Алексей Капитонов, Олеся Лохова, Пётр Ступин, Влад Сташевский, Максим Пинскер, Сергей Барковский, Бесо Гатаев, Аслан Бижоев, Владимир Костин (III), Ирина Лазарева, Евгений Ткаченко (II), Тина Кузнецова
Описание: В одной из российских деревень, там, куда не добралась цивилизации, и где все еще процветает привозная торговля, живет и работает Катя. Романтика, новые запахи, модные вещи — вдохновляют на подвиги (в прямом и переносном смысле) жительниц деревни. Женщины готовы на все, чтоб обрести свое женское счастье! А мечта всей Катиной жизни — Влад Сташевский!Похищение Влада Сташевского — генеральный план героинь комедии.
Доп. информация:
Автор релиза -
Источник аудио и видео - HDTV 1080i TS - моя запись с канала Наш Кинороман HD


Сэмпл: https://yadi.sk/i/paP9EyoU3GMXJV
Рекламы нет!
Качество видео: HDTV 1080i
Формат видео: TS
Видео: MPEG-4 AVC, 1920x1080 (16:9), 25.000 fps, 7393 kbps, 0.143 bit/pixel
Аудио 1: Русский AC3, 48000 Гц, 6ch, 448 kbps
Аудио 2: Русский MP2, 48000 Гц, 2ch, 192 kbps

MediaInfo

Общее
Идентификатор : 17 (0x11)
Полное имя : D:\Бабоньки.2015.HDTV.1080i-ylnian.ts
Формат : MPEG-TS
Размер файла : 5,31 Гбайт
Продолжительность : 1 ч. 29 м.
Режим общего битрейта : Переменный
Общий поток : 8457 Кбит/сек
Видео
Идентификатор : 3551 (0xDDF)
Идентификатор меню : 17015 (0x4277)
Формат : AVC
Формат/Информация : Advanced Video Codec
Профиль формата : Main@L4
Параметр CABAC формата : Да
Параметр ReFrames формата : 4 кадра
Идентификатор кодека : 27
Продолжительность : 1 ч. 29 м.
Битрейт : 7393 Кбит/сек
Ширина : 1920 пикселей
Высота : 1080 пикселей
Соотношение сторон : 16:9
Частота кадров : 25,000 кадров/сек
Цветовое пространство : YUV
Субдискретизация насыщенности : 4:2:0
Битовая глубина : 8 бит
Тип развёртки : Чересстрочная
Метод сохранения типа развёртки : Раздельные поля
Порядок развёртки : Верхнее поле первое
Бит/(Пиксели*Кадры) : 0.143
Размер потока : 4,65 Гбайт (87%)
Цветовой диапазон : Limited
Основные цвета : BT.709
Характеристики трансфера : BT.709
Коэффициенты матрицы : BT.709
Аудио #1
Идентификатор : 3552 (0xDE0)
Идентификатор меню : 17015 (0x4277)
Формат : MPEG Audio
Версия формата : Version 1
Профиль формата : Layer 2
Идентификатор кодека : 4
Продолжительность : 1 ч. 29 м.
Вид битрейта : Постоянный
Битрейт : 192 Кбит/сек
Каналы : 2 канала
Частота : 48,0 КГц
Метод сжатия : С потерями
Задержка видео : 109 мс.
Размер потока : 124 Мбайт (2%)
Язык : Russian
Аудио #2
Идентификатор : 3553 (0xDE1)
Идентификатор меню : 17015 (0x4277)
Формат : AC-3
Формат/Информация : Audio Coding 3
Параметр Endianness формата : Big
Идентификатор кодека : 6
Продолжительность : 1 ч. 29 м.
Вид битрейта : Постоянный
Битрейт : 448 Кбит/сек
Каналы : 6 каналов
Расположение каналов : Front: L C R, Side: L R, LFE
Частота : 48,0 КГц
Частота кадров : 31,250 кадров/сек (1536 spf)
Битовая глубина : 16 бит
Метод сжатия : С потерями
Задержка видео : 112 мс.
Размер потока : 288 Мбайт (5%)
Язык : Russian
ServiceKind/String : Complete Main

Скриншот c названием фильма

Скачать

Скачать бесплатно и на максимальной скорости!

Как скачивать? · Что такое торрент? · Рейтинг и ограничения




Вы не можете начинать темы
Вы не можете отвечать на сообщения
Вы не можете редактировать свои сообщения
Вы не можете удалять свои сообщения
Вы не можете голосовать в опросах
Вы не можете прикреплять файлы к сообщениям
Вы не можете скачивать файлы