Уснувший пассажир (Ярополк Лапшин) [1993, Россия, детектив, HDTV 1080i] Original Rus


by Virtuoz ®
26-Мар-2018 08:23

[Цитировать]

Уснувший пассажир (Ярополк Лапшин) [1993, Россия, детектив, HDTV 1080i] Original Rus

Уснувший пассажир
Страна: Россия
Студия: ТО Евразия, Свердловская Киностудия, Роскомкино
Жанр: Детектив
Год выпуска: 1993
Продолжительность: 01:17:18
Перевод: Не требуется
Субтитры: Нет
Оригинальная аудио дорожка: Русский
Режиссёр: Ярополк Лапшин
В ролях: Анатолий Кузнецов, Ольга Остроумова, Александр Пашутин, Владимир Кашпур, Шавкат Газиев, Валерий Храмцов, Анатолий Лесников, Сейдулла Молдаханов, Виталий Краев
Описание: На затерянном в степи аэродроме совершает непредвиденную посадку самолет, следующий рейсом из Москвы в Сингапур - столицу одного из азиатских государств. Пока экипаж производит ремонт, пассажиры прогуливаются неподалеку. Вскоре в салоне воздушного судна находят труп иностранного туриста, летевшего первым классом. Среди тех, кто летит этим рейсом, оказывается бывший полковник Московского уголовного розыска Смирнов, который сразу решает провести расследование преступления и найти виновного. Кому же мог помешать несчастный иностранец? Случайная он жертва, или убийство было тщательно спланировано? Бывший следователь по особо важным делам начинает наблюдать за всеми - ведь убийцей может оказаться кто угодно...
Доп. информация:
Автор релиза -
Источник аудио и видео - HDTV 1080i TS - моя запись с канала Первый HD
В дорожке AC3, 48000 Гц, 6ch, 384 kbps по факту лишь 2 канала со звуком, а оставшиеся 4 канала пустые
Реставрация изображения от Первого канала!



Сэмпл: https://yadi.sk/i/rh2_O_TZ3GM9cs
Рекламы нет!
Качество видео: HDTV 1080i
Формат видео: TS
Видео: MPEG-4 AVC, 1920x1080 (16:9), 25.000 fps, 9166 kbps, 0.177 bit/pixel
Аудио 1: Русский AC3, 48000 Гц, 2ch, 384 kbps
Аудио 2: Русский MP2, 48000 Гц, 2ch, 192 kbps

MediaInfo

Общее
Идентификатор : 1 (0x1)
Полное имя : D:\Уснувший.пассажир.1993.HDTV.1080i-ylnian.ts
Формат : MPEG-TS
Размер файла : 5,54 Гбайт
Продолжительность : 1 ч. 17 м.
Режим общего битрейта : Переменный
Общий поток : 10,3 Мбит/сек
Видео
Идентификатор : 205 (0xCD)
Идентификатор меню : 20105 (0x4E89)
Формат : AVC
Формат/Информация : Advanced Video Codec
Профиль формата : High@L4
Параметр CABAC формата : Да
Параметр ReFrames формата : 4 кадра
Идентификатор кодека : 27
Продолжительность : 1 ч. 17 м.
Битрейт : 9166 Кбит/сек
Ширина : 1920 пикселей
Высота : 1080 пикселей
Соотношение сторон : 16:9
Частота кадров : 25,000 кадров/сек
Цветовое пространство : YUV
Субдискретизация насыщенности : 4:2:0
Битовая глубина : 8 бит
Тип развёртки : Чересстрочная
Метод сохранения типа развёртки : Раздельные поля
Порядок развёртки : Верхнее поле первое
Бит/(Пиксели*Кадры) : 0.177
Размер потока : 4,95 Гбайт (89%)
Цветовой диапазон : Limited
Основные цвета : BT.709
Характеристики трансфера : BT.709
Коэффициенты матрицы : BT.709
Аудио #1
Идентификатор : 305 (0x131)
Идентификатор меню : 20105 (0x4E89)
Формат : MPEG Audio
Версия формата : Version 1
Профиль формата : Layer 2
Идентификатор кодека : 3
Продолжительность : 1 ч. 17 м.
Вид битрейта : Постоянный
Битрейт : 192 Кбит/сек
Каналы : 2 канала
Частота : 48,0 КГц
Метод сжатия : С потерями
Задержка видео : -40 мс.
Размер потока : 106 Мбайт (2%)
Язык : Russian
Аудио #2
Идентификатор : 405 (0x195)
Идентификатор меню : 20105 (0x4E89)
Формат : AC-3
Формат/Информация : Audio Coding 3
Параметр Endianness формата : Big
Идентификатор кодека : 6
Продолжительность : 1 ч. 17 м.
Вид битрейта : Постоянный
Битрейт : 384 Кбит/сек
Каналы : 6 каналов
Расположение каналов : Front: L C R, Side: L R, LFE
Частота : 48,0 КГц
Частота кадров : 31,250 кадров/сек (1536 spf)
Битовая глубина : 16 бит
Метод сжатия : С потерями
Задержка видео : -40 мс.
Размер потока : 212 Мбайт (4%)
Язык : Russian
ServiceKind/String : Complete Main

Сравнение с DVB

Сравнении с DVB - http://screenshotcomparison.com/comparison/204653

Скриншот c названием фильма

Скачать

Скачать бесплатно и на максимальной скорости!

Как скачивать? · Что такое торрент? · Рейтинг и ограничения




Вы не можете начинать темы
Вы не можете отвечать на сообщения
Вы не можете редактировать свои сообщения
Вы не можете удалять свои сообщения
Вы не можете голосовать в опросах
Вы не можете прикреплять файлы к сообщениям
Вы не можете скачивать файлы