Гуляй, Вася! (Роман Каримов) [2017, Россия, комедия, WEB-DL 1080p] + Original Rus


Размер:  3.73 GB   |    Зарегистрирован:  5 месяцев 23 дня   |    Скачан:  1 раз
Сидов:  1  [  0 KB/s  ]   Подробная статистика пиров
by Virtuoz ®
26-Мар-2018 05:23

[Цитировать]

Гуляй, Вася! (Роман Каримов) [2017, Россия, комедия, WEB-DL 1080p] + Original Rus

Гуляй, Вася!
Страна: Россия
Жанр: комедия
Год выпуска: 2017
Продолжительность: 01:36:02-Перевод: Не требуется
Субтитры: нет
Оригинальная аудиодорожка: русский-Режиссер: Роман Каримов-В ролях: Ефим Петрунин, Любовь Аксенова, Роман Курцын, Софья Райзман, Борис Дергачев, Сергей Аброскин, Светлана Степанковская, Вера Панфилова, Наталья Тетенова, Давид Петросян
Описание: Бедный Митя влип по полной: случайно сделал предложение, а отец девушки, как будто только этого и ждал - тут же назначил дату свадьбы. Все бы ничего, да только Митя… уже женат! Он возвращается в свой город, чтобы экстренно развестись. Но Василиса (или просто Вася), с которой они давно не живут, - циничная стерва, и за развод придется побороться. Простейший способ ускорить процесс - предъявить первую попавшуюся «невесту». Кто же знал, что у нее имеется настоящий жених, местный качок... Окончательно все запутывается, когда разруливать ситуацию берутся бывшие одноклассники Мити - подкаблучник Паша и аферист Гарик.-Тип релиза: WEB-DL 1080p
Контейнер: MKV-Видео: 1920x1080 (16:9), 24 fps, MPEG-4 AVC, ~ 5064 kbps, 0.102 Bits/(Pixel*Frame)-Аудио: : Russian: 48 kHz, AC3, 3/2 (L,C,R,l,r) + LFE ch, ~384.00 kbps avg

MediaInfo

Общее
Уникальный идентификатор : 244273720697194149248248393653361347614 (0xB7C56846E4F04037880CE09097108C1E)
Полное имя : D:\Gulyay.Vasya.WEB-DL.1080p.mkv
Формат : Matroska
Версия формата : Version 2
Размер файла : 3,73 Гбайт
Продолжительность : 1 ч. 36 м.
Общий поток : 5558 Кбит/сек
Дата кодирования : UTC 2017-03-23 12:49:59
Программа кодирования : mkvmerge v5.6.0 ('Kenya Kane') built on May 27 2012 16:44:04
Библиотека кодирования : libebml v1.2.3 + libmatroska v1.3.0
Видео
Идентификатор : 1
Формат : AVC
Формат/Информация : Advanced Video Codec
Профиль формата : High@L4
Параметр CABAC формата : Да
Параметр ReFrames формата : 4 кадра
Идентификатор кодека : V_MPEG4/ISO/AVC
Продолжительность : 1 ч. 36 м.
Битрейт : 5064 Кбит/сек
Ширина : 1920 пикселей
Высота : 1080 пикселей
Соотношение сторон : 16:9
Режим частоты кадров : Постоянный
Частота кадров : 24,000 кадра/сек
Цветовое пространство : YUV
Субдискретизация насыщенности : 4:2:0
Битовая глубина : 8 бит
Тип развёртки : Прогрессивная
Бит/(Пиксели*Кадры) : 0.102
Размер потока : 3,40 Гбайт (91%)
Язык : Russian
Default : Да
Forced : Нет
Цветовой диапазон : Limited
Основные цвета : BT.709
Характеристики трансфера : BT.709
Коэффициенты матрицы : BT.709
Аудио
Идентификатор : 2
Формат : AC-3
Формат/Информация : Audio Coding 3
Расширение режима : CM (complete main)
Параметр Endianness формата : Big
Идентификатор кодека : A_AC3
Продолжительность : 1 ч. 36 м.
Вид битрейта : Постоянный
Битрейт : 384 Кбит/сек
Каналы : 6 каналов
Расположение каналов : Front: L C R, Side: L R, LFE
Частота : 48,0 КГц
Частота кадров : 31,250 кадров/сек (1536 spf)
Битовая глубина : 16 бит
Метод сжатия : С потерями
Размер потока : 264 Мбайт (7%)
Язык : Russian
Default : Да
Forced : Нет
Меню
00:00:00.000 : en:1
00:05:12.916 : en:2
00:10:34.166 : en:3
00:16:53.249 : en:4
00:21:31.957 : en:5
00:27:47.332 : en:6
00:33:50.165 : en:7
00:39:12.415 : en:8
00:44:09.540 : en:9
00:50:56.165 : en:10
00:58:07.040 : en:11
01:04:24.581 : en:12
01:10:50.539 : en:13
01:16:36.372 : en:14
01:24:14.455 : en:15

Скриншоты





Вы не можете начинать темы
Вы не можете отвечать на сообщения
Вы не можете редактировать свои сообщения
Вы не можете удалять свои сообщения
Вы не можете голосовать в опросах
Вы не можете прикреплять файлы к сообщениям
Вы можете скачивать файлы