Ускользающая жизнь (Наследство) / Серии: 1-2 из 2 (Владимир Нахабцев мл.) [2018, детектив, мелодрама, WEBRip]


by Boris G ®
23-Dec-2018 15:27

[Quote]

Ускользающая жизнь (Наследство) / Серии: 1-2 из 2 (Владимир Нахабцев мл.) [2018, детектив, мелодрама, WEBRip]

Ускользающая жизнь (Наследство)
Год выпуска: 2018
Производство: Марс Медиа
Жанр: детектив, мелодрама
Продолжительность: ~00:48:00 серия
Субтитры: нет
Режиссёр: Владимир Нахабцев мл.
В ролях: Глафира Тарханова, Александр Никитин , Юрий Беляев, Андрей Чадов, Александр Подобед, Андрей Карако, Анна Полупанова, Алеся Самоховец, Светлана Аникей, Олег Ткачёв, Надежда Анципович, Алла Ельяшевич, Игорь Петров , Светлана Никифорова

Описание: Успешный кардиохирург Альбина Виленская приходит в себя в больнице и узнает, что отец, известный адвокат, умер, лишив ее наследства, жених Игорь бесследно исчез, а сама она пыталась покончить с собой. Расследуя обстоятельства, которые привели к крушению ее жизни, Альбина снова оказывается на краю пропасти. К счастью, на ее пути появляется спаситель, с которым Альбину неожиданно многое связывает.

Реклама: Нет.
Кинопоиск
Все раздачи сериала
Sample
Качество: WEBRip - Files-x
Формат: AVI
Видео кодек: XviD
Аудио кодек: AC3
Видео: 720x400 (1.80:1), 25 fps, XviD build 73 ~1550 kbps avg, 0.215 bit/pixel
Аудио: 48.0 kHz, AC3 Dolby Digital, 2/0 (L,R) ch, ~ 192 kbps

MI

General
Complete name : D:\Ускользающая жизнь (Наследство).2018.WEB-DLRip.by.Nicodem.Files-x\01.Ускользающая жизнь (Наследство).2018.WEB-DLRip.by.Nicodem.Files-x.avi
Format : AVI
Format/Info : Audio Video Interleave
File size : 601 MiB
Duration : 47mn 54s
Overall bit rate : 1 753 Kbps
Writing application : VirtualDubMod 1.5.10.3 | www.virtualdub-fr.org || (build 2550/release)
Writing library : VirtualDubMod build 2550/release
Video
ID : 0
Format : MPEG-4 Visual
Format profile : Advanced Simple@L5
Format settings, BVOP : 1
Format settings, QPel : No
Format settings, GMC : No warppoints
Format settings, Matrix : Custom
Codec ID : XVID
Codec ID/Hint : XviD
Duration : 47mn 54s
Bit rate : 1 552 Kbps
Width : 720 pixels
Height : 400 pixels
Display aspect ratio : 16:9
Frame rate : 25.000 fps
Color space : YUV
Chroma subsampling : 4:2:0
Bit depth : 8 bits
Scan type : Progressive
Compression mode : Lossy
Bits/(Pixel*Frame) : 0.215
Stream size : 532 MiB (88%)
Writing library : XviD 73
Audio
ID : 1
Format : AC-3
Format/Info : Audio Coding 3
Mode extension : CM (complete main)
Format settings, Endianness : Big
Codec ID : 2000
Duration : 47mn 54s
Bit rate mode : Constant
Bit rate : 192 Kbps
Channel count : 2 channels
Channel positions : Front: L R
Sampling rate : 48.0 KHz
Bit depth : 16 bits
Compression mode : Lossy
Stream size : 65.8 MiB (11%)
Alignment : Split accross interleaves
Interleave, duration : 40 ms (1.00 video frame)
Interleave, preload duration : 500 ms

Скриншоты


Download

Download free and at maximum speed!

How to Download? · What is a torrent? · Ratings and Limitations




You cannot post new topics in this forum
You cannot reply to topics in this forum
You cannot edit your posts in this forum
You cannot delete your posts in this forum
You cannot vote in polls in this forum
You cannot attach files in this forum
You cannot download files in this forum