Гаро: Сияющий во Тьме / GARO Yami wo terasu mono / GARO The One Who Shines in the Darkness (Makoto Yokoyama) [3 сезон] [20 из 23] [RUS(int)][Япония, 2013, Токусацу, HDTVRip] [720p] [RAW]


by Boris G ®
23-Дек-2018 15:28

[Цитировать]

Гаро: Сияющий во Тьме / GARO Yami wo terasu mono / GARO The One Who Shines in the Darkness (Makoto Yokoyama) [3 сезон] [20 из 23] [RUS(int)][Япония, 2013, Токусацу, HDTVRip] [720p] [RAW]

Гаро: Сияющий во Тьме / Garo Год выпуска: 2013
Страна: Япония
Жанр: Фантастика, ужасы
Продолжительность: 11 х 00:24:00
Перевод: Любительский (двухголосый закадровый) [DeadSno & den904]
Русские субтитры: нет-Режиссёр: Макото Якояма-В ролях: Ватару Курияма, Юня Икеда, Цуненори Аоки, Мики Нанри, Хироко Сато, Кани Цуда-Описание: Третий сезон ТВ-сериала GARO, события которого происходят через некоторое время после событий Makai Senki. Доспех Золотого Рыцаря, Гаро, утратил свой блеск и сейчас принадлежит Макай-рыцарю по имени Рюга, который предпочитает сражаться с демонами-Хоррорами в одиночку. Послание, полученное Рюгой, велит ему отправляться в изолированный и независимый город - Вол-Сити. С этого момента начинается новая легенда о Макай-рыцаре, истребляющем Хорроров..-Отличие от других раздач:
http://rutracker.org/forum/viewtopic.php?t=4409918 - наличие озвучки-Сэмпл: http://multi-up.com/857633-Качество: HDTVRip 720р
Формат: MKV
Видео кодек: H.264
Аудио кодек: MP3
Видео: MPEG-4 AVC, 2261 Кбит/с, 1280x720, 29,970 кадров/сек
Аудио: MP3, 2 ch, 128 Кбит/с, 48,0 КГц

MediaInfo

Формат : Matroska
Версия формата : Version 4 / Version 2
Размер файла : 418 Мбайт
Продолжительность : 23 м.
Общий поток : 2438 Кбит/сек
Дата кодирования : UTC 2013-04-21 21:30:00
Программа кодирования : mkvmerge v6.1.0 ('Old Devil') built on Mar 2 2013 14:32:37
Библиотека кодирования : libebml v1.3.0 + libmatroska v1.4.0
Attachment : Yes / Yes / Yes / Yes
Видео
Идентификатор : 1
Формат : AVC
Формат/Информация : Advanced Video Codec
Профиль формата : High 10@L5.0
Параметр CABAC формата : Да
Параметр ReFrames формата : 16 кадров
Идентификатор кодека : V_MPEG4/ISO/AVC
Продолжительность : 23 м.
Битрейт : 2261 Кбит/сек
Ширина : 1280 пикселей
Высота : 720 пикселей
Соотношение сторон : 16:9
Режим частоты кадров : Постоянный
Частота кадров : 29,970 кадров/сек
Цветовое пространство : YUV
Субдискретизация насыщенности : 4:2:0
Битовая глубина : 10 бит
Тип развёртки : Прогрессивная
Бит/(Пиксели*Кадры) : 0.082
Размер потока : 388 Мбайт (93%)
Библиотека кодирования : x264 core 130 r2274+704+41 14823ae tMod+TriAQ [10-bit@4:2:0 X86]
Настройки программы : cabac=1 / ref=16 / deblock=1:-1:-1 / analyse=0x3:0x133 / me=umh / subme=10 / psy=1 / fade_compensate=0.00 / psy_rd=1.00:0.15 / mixed_ref=1 / me_range=24 / chroma_me=1 / trellis=2 / 8x8dct=1 / cqm=0 / deadzone=21,11 / fast_pskip=1 / chroma_qp_offset=-3 / threads=6 / lookahead_threads=1 / sliced_threads=0 / nr=0 / decimate=1 / interlaced=0 / bluray_compat=0 / constrained_intra=0 / fgo=0 / bframes=8 / b_pyramid=2 / b_adapt=2 / b_bias=0 / direct=3 / weightb=1 / open_gop=0 / weightp=2 / keyint=300 / keyint_min=29 / scenecut=40 / intra_refresh=0 / rc_lookahead=60 / rc=crf / mbtree=1 / crf=22.5000 / qcomp=0.60 / qpmin=0 / qpmax=81 / qpstep=4 / ip_ratio=1.40 / aq=3:1.00 / aq-sensitivity=10.00 / aq-factor=1.00:1.00:1.00 / aq2=0 / aq3=0
Язык : Japanese
Default : Да
Forced : Нет
Коэффициенты матрицы : BT.709
Аудио
Идентификатор : 2
Формат : MPEG Audio
Версия формата : Version 1
Профиль формата : Layer 3
Режим : Joint stereo
Расширение режима : MS Stereo
Идентификатор кодека : A_MPEG/L3
Идентификатор кодека/Подсказка : MP3
Продолжительность : 23 м.
Вид битрейта : Постоянный
Битрейт : 128 Кбит/сек
Каналы : 2 канала
Частота : 48,0 КГц
Метод сжатия : С потерями
Размер потока : 22,0 Мбайт (5%)
Default : Да
Forced : Нет

Скриншоты

Скачать

Скачать бесплатно и на максимальной скорости!

Как скачивать? · Что такое торрент? · Рейтинг и ограничения




Вы не можете начинать темы
Вы не можете отвечать на сообщения
Вы не можете редактировать свои сообщения
Вы не можете удалять свои сообщения
Вы не можете голосовать в опросах
Вы не можете прикреплять файлы к сообщениям
Вы не можете скачивать файлы