Вурдалаки (Сергей Гинзбург) [2016, Россия, триллер, фэнтези, WEB-DL 1080p] + Original Rus


Размер:  2.79 GB   |    Зарегистрирован:  4 месяца 22 дня   |    Скачан:  0 раз
Сидов:  2  [  0 KB/s  ]   Подробная статистика пиров
by Virtuoz ®
26-Мар-2018 05:23

[Цитировать]

Вурдалаки (Сергей Гинзбург) [2016, Россия, триллер, фэнтези, WEB-DL 1080p] + Original Rus

Вурдалаки
Страна: Россия
Жанр: триллер, фэнтези
Год выпуска: 2016
Продолжительность: 01:21:44
Перевод: Не требуется
Субтитры: нет
Оригинальная аудиодорожка: русский-Режиссер: Сергей Гинзбург-В ролях: Михаил Пореченков, Константин Крюков, Аглая Шиловская, Андрей Руденский, Михаил Жигалов, Игорь Хрипунов, Анатолий Гущин, Константин Милованов, Анна Арланова, Юлия Ауг
Описание: Россия, 18 век.На краю Руси, в Карпатских горах, стоит Спасский монастырь, куда был сослан духовник императрицы Елизаветы монах Лавр. Какие тайны он унес с собой из столичного Петербурга, никто не ведал.Да и край, в который он был сослан, издревле считался неспокойным, о нем слагали легенды и рассказывали их только шепотом.Говорили мол, что в тех краях живет нечистая сила, оставшаяся там еще со времен набегов турецких…
Спустя годы за Лавром из Петербурга прибывает Андрей, крестник самой императрицы Елизаветы. В Карпатах Андрей сталкивается со странным, пугающим и необычным, что не в состоянии объяснить его рациональный разум. А еще он встречает настоящую любовь, ради которой вступает в схватку со сверхъестественным злом.-Релиз от:

Тип релиза: WEB-DL 1080p
Контейнер: MKV-Видео: 1920x802 (2,40:1), 24 fps, MPEG-4 AVC, ~ 4411 kbps, 0.119 Bits/(Pixel*Frame)-Аудио: Russian: 48 kHz, AC3, 3/2 (L,C,R,l,r) + LFE ch, ~384.00 kbps avg

MediaInfo

Общее
Уникальный идентификатор : 248970117702907481051427097349642581670 (0xBB4DE686C91A68DF8E66BDB95080F6A6)
Полное имя : D:\Vurdalaki.WEB-DL.1080p..mkv
Формат : Matroska
Версия формата : Version 2
Размер файла : 2,79 Гбайт
Продолжительность : 1 ч. 21 м.
Общий поток : 4892 Кбит/сек
Дата кодирования : UTC 2017-03-23 12:54:32
Программа кодирования : mkvmerge v5.6.0 ('Kenya Kane') built on May 27 2012 16:44:04
Библиотека кодирования : libebml v1.2.3 + libmatroska v1.3.0
Видео
Идентификатор : 1
Формат : AVC
Формат/Информация : Advanced Video Codec
Профиль формата : High@L4
Параметр CABAC формата : Да
Параметр ReFrames формата : 5 кадров
Идентификатор кодека : V_MPEG4/ISO/AVC
Продолжительность : 1 ч. 21 м.
Битрейт : 4411 Кбит/сек
Ширина : 1920 пикселей
Высота : 802 пикселя
Соотношение сторон : 2,40:1
Режим частоты кадров : Постоянный
Частота кадров : 24,000 кадра/сек
Цветовое пространство : YUV
Субдискретизация насыщенности : 4:2:0
Битовая глубина : 8 бит
Тип развёртки : Прогрессивная
Бит/(Пиксели*Кадры) : 0.119
Размер потока : 2,52 Гбайт (90%)
Язык : Russian
Default : Да
Forced : Нет
Цветовой диапазон : Limited
Основные цвета : BT.709
Характеристики трансфера : BT.709
Коэффициенты матрицы : BT.709
Аудио
Идентификатор : 2
Формат : AC-3
Формат/Информация : Audio Coding 3
Расширение режима : CM (complete main)
Параметр Endianness формата : Big
Идентификатор кодека : A_AC3
Продолжительность : 1 ч. 21 м.
Вид битрейта : Постоянный
Битрейт : 384 Кбит/сек
Каналы : 6 каналов
Расположение каналов : Front: L C R, Side: L R, LFE
Частота : 48,0 КГц
Частота кадров : 31,250 кадров/сек (1536 spf)
Битовая глубина : 16 бит
Метод сжатия : С потерями
Размер потока : 225 Мбайт (8%)
Язык : Russian
Default : Да
Forced : Нет
Меню
00:00:00.000 : en:1
00:05:50.541 : en:2
00:10:08.249 : en:3
00:16:11.915 : en:4
00:21:00.790 : en:5
00:27:00.373 : en:6
00:32:16.748 : en:7
00:37:07.748 : en:8
00:42:42.414 : en:9
00:47:58.330 : en:10
00:53:19.205 : en:11
00:58:03.621 : en:12
01:03:14.787 : en:13
01:08:02.245 : en:14
01:13:30.620 : en:15

Скриншоты




Вы не можете начинать темы
Вы не можете отвечать на сообщения
Вы не можете редактировать свои сообщения
Вы не можете удалять свои сообщения
Вы не можете голосовать в опросах
Вы не можете прикреплять файлы к сообщениям
Вы можете скачивать файлы