Дачная поездка сержанта Цыбули (Николай Литус, Виталий Шунько) [1980, СССР, комедия, военный, приключения, экранизация, HDTV 1080i] [Широкоэкранная версия] Original Rus


by Virtuoz ®
26-Мар-2018 08:23

[Цитировать]

Дачная поездка сержанта Цыбули (Николай Литус, Виталий Шунько) [1980, СССР, комедия, военный, приключения, экранизация, HDTV 1080i] [Широкоэкранная версия] Original Rus

Дачная поездка сержанта Цыбули / Широкоэкранная версия
Страна: СССР
Студия: Киностудия им. А. Довженко, ТО "Радуга"
Жанр: Комедия, военный, приключения, экранизация
Год выпуска: 1980
Продолжительность: 01:12:29
Перевод: Не требуется
Субтитры: Нет
Оригинальная аудио дорожка: Русский
Режиссёр: Николай Литус, Виталий Шунько
В ролях: Сергей Иванов, Владимир Алексеенко, Михаил Кокшенов, Надежда Смирнова (I), Володя Чубарев, Михаил Львов, Нина Реус, Степан Олексенко, Сергей Свечников, Маргарита Криницына, Николай Литус, Борис Сабуров, Евгений Мажуга, Полина Куманченко, Сергей Шеметило, Владимир Бездомников, Геннадий Болотов, Георгий Дворников, Леонид Марченко, Юрий Мысенков, Лев Перфилов, Анатолий Помилуйко, Анатолий Сиротенко, Анатолий Скорякин, Василий Фущич, Виктор Андриенко
Описание: По мотивам повести П. Автомонова «Автограф сержанта Цыбули». Бойца-разведчика сержанта Цыбулю (Сергей Иванов) отправляют на «дачную поездку» — провести инструктаж в партизанском отряде. Но ночной прыжок из самолёта на парашюте оказался неудачным — «три костра в линию», служащие ориентиром, оказались кострами, на которых полицаи обрабатывали реквизированных у населения свиней… Цыбуля приземляется в логове противника… Но, перехитрив своих преследователей и захватив в плен немецкого майора, он все-таки прорывается к партизанам на вражеском бронепоезде, пройдя через множество приключений...
Доп. информация:
Автор релиза -
Источник аудио и видео - HDTV 1080i TS - моя запись с канала Первый HD
В дорожке AC3, 48000 Гц, 6ch, 384 kbps по факту лишь 2 канала со звуком, а оставшиеся 4 канала пустые
Широкоэкранная версия - в сравнении с DVD картинка больше со всех сторон - http://screenshotcomparison.com/comparison/203879
Реставрация изображения от Первого канала!



Сэмпл: https://yadi.sk/i/eaoBAOtK3G93qS
Рекламы нет!
Качество видео: HDTV 1080i
Формат видео: TS
Видео: MPEG-4 AVC, 1920x1080 (16:9), 25.000 fps, 6407 kbps, 0.124 bit/pixel
Аудио 1: Русский AC3, 48000 Гц, 2ch, 384 kbps
Аудио 2: Русский MP2, 48000 Гц, 2ch, 192 kbps

MediaInfo

Общее
Идентификатор : 1 (0x1)
Полное имя : D:\Дачная.поездка.сержанта.Цыбули.1980.HDTV.1080i-ylnian.ts
Формат : MPEG-TS
Размер файла : 3,72 Гбайт
Продолжительность : 1 ч. 12 м.
Режим общего битрейта : Переменный
Общий поток : 7352 Кбит/сек
Видео
Идентификатор : 205 (0xCD)
Идентификатор меню : 20105 (0x4E89)
Формат : AVC
Формат/Информация : Advanced Video Codec
Профиль формата : High@L4
Параметр CABAC формата : Да
Параметр ReFrames формата : 4 кадра
Идентификатор кодека : 27
Продолжительность : 1 ч. 12 м.
Битрейт : 6407 Кбит/сек
Ширина : 1920 пикселей
Высота : 1080 пикселей
Соотношение сторон : 16:9
Частота кадров : 25,000 кадров/сек
Цветовое пространство : YUV
Субдискретизация насыщенности : 4:2:0
Битовая глубина : 8 бит
Тип развёртки : Чересстрочная
Метод сохранения типа развёртки : Раздельные поля
Порядок развёртки : Верхнее поле первое
Бит/(Пиксели*Кадры) : 0.124
Размер потока : 3,24 Гбайт (87%)
Цветовой диапазон : Limited
Основные цвета : BT.709
Характеристики трансфера : BT.709
Коэффициенты матрицы : BT.709
Аудио #1
Идентификатор : 305 (0x131)
Идентификатор меню : 20105 (0x4E89)
Формат : AC-3
Формат/Информация : Audio Coding 3
Параметр Endianness формата : Big
Идентификатор кодека : 6
Продолжительность : 1 ч. 12 м.
Вид битрейта : Постоянный
Битрейт : 384 Кбит/сек
Каналы : 6 каналов
Расположение каналов : Front: L C R, Side: L R, LFE
Частота : 48,0 КГц
Частота кадров : 31,250 кадров/сек (1536 spf)
Битовая глубина : 16 бит
Метод сжатия : С потерями
Задержка видео : -40 мс.
Размер потока : 199 Мбайт (5%)
Язык : Russian
ServiceKind/String : Complete Main
Аудио #2
Идентификатор : 306 (0x132)
Идентификатор меню : 20105 (0x4E89)
Формат : MPEG Audio
Версия формата : Version 1
Профиль формата : Layer 2
Идентификатор кодека : 3
Продолжительность : 1 ч. 12 м.
Вид битрейта : Постоянный
Битрейт : 192 Кбит/сек
Каналы : 2 канала
Частота : 48,0 КГц
Метод сжатия : С потерями
Задержка видео : -40 мс.
Размер потока : 99,5 Мбайт (3%)
Язык : Russian

Сравнение с DVD

Широкоэкранная версия - в сравнении с DVD картинка больше со всех сторон - http://screenshotcomparison.com/comparison/203879
Сравнение с версией фильма, которую показывали по т/к Звезда - http://screenshotcomparison.com/comparison/203880
Сравнение с DVB записью с т/к Первый EUR - http://screenshotcomparison.com/comparison/203881

Скриншот c названием фильма

Скачать

Скачать бесплатно и на максимальной скорости!

Как скачивать? · Что такое торрент? · Рейтинг и ограничения




Вы не можете начинать темы
Вы не можете отвечать на сообщения
Вы не можете редактировать свои сообщения
Вы не можете удалять свои сообщения
Вы не можете голосовать в опросах
Вы не можете прикреплять файлы к сообщениям
Вы не можете скачивать файлы