Мамы 3 (Георгий Малков, Эмиль Никогосян) [2014, Россия, комедия, семейный, HDTV 1080i] [Open Matte] Original Rus


by Virtuoz ®
26-Мар-2018 08:23

[Цитировать]

Мамы 3 (Георгий Малков, Эмиль Никогосян) [2014, Россия, комедия, семейный, HDTV 1080i] [Open Matte] Original Rus

Мамы 3 / Open Matte
Страна: Россия
Студия: Централ Партнершип, Enjoy Movies, Фонд Кино, Тетерин Фильм
Жанр: Комедия, семейный
Год выпуска: 2014
Продолжительность: 01:28:04
Перевод: Не требуется
Субтитры: Нет
Оригинальная аудио дорожка: Русский
Режиссёр: Георгий Малков, Эмиль Никогосян
В ролях: Анастасия Заворотнюк, Ольга Волкова, Мария Сёмкина, Гарик Харламов, Андрей Ургант, Тимур Родригез, Евгений Сморигин, Евгений Шапошников, Кристина Орса, Екатерина Волкова, Александр Уман, Егор Бортник
Описание: Героини первых двух фильмов отправляются отмечать Новый год в Прагу, однако самолет, на котором они летят, из-за погодных условий садится в маленьком польском городке. Увидев, что в городе не готовят большого и шумного праздника, они решают организовать его самостоятельно.
Доп. информация:
Автор релиза -
Источник аудио и видео - HDTV 1080i TS - моя запись с канала Наш Кинороман HD
Open Matte - cравнение с Blu-Ray - http://screenshotcomparison.com/comparison/203673 - большее наполнение кадра сверху и снизу!!!



Сэмпл: https://yadi.sk/i/tIo6xgP03G5mMZ
Рекламы нет!
Качество видео: HDTV 1080i
Формат видео: TS
Видео: MPEG-4 AVC, 1920x1080 (16:9), 25.000 fps, 8064 kbps, 0.156 bit/pixel
Аудио 1: Русский AC3, 48000 Гц, 6ch, 448 kbps
Аудио 2: Русский MP2, 48000 Гц, 2ch, 192 kbps

MediaInfo

Общее
Идентификатор : 1 (0x1)
Полное имя : D:\Мамы.3.2014.HDTV.1080i-ylnian.ts
Формат : MPEG-TS
Размер файла : 5,64 Гбайт
Продолжительность : 1 ч. 28 м.
Режим общего битрейта : Переменный
Общий поток : 9163 Кбит/сек
Максимальный общий битрейт : 35,5 Мбит/сек
Видео
Идентификатор : 4113 (0x1011)
Идентификатор меню : 1 (0x1)
Формат : AVC
Формат/Информация : Advanced Video Codec
Профиль формата : Main@L4
Параметр CABAC формата : Да
Параметр ReFrames формата : 4 кадра
Параметр GOP формата : M=1, N=32
Идентификатор кодека : 27
Продолжительность : 1 ч. 28 м.
Вид битрейта : Переменный
Битрейт : 8064 Кбит/сек
Максимальный битрейт : 40,0 Мбит/сек
Ширина : 1920 пикселей
Высота : 1080 пикселей
Соотношение сторон : 16:9
Частота кадров : 25,000 кадров/сек
Цветовое пространство : YUV
Субдискретизация насыщенности : 4:2:0
Битовая глубина : 8 бит
Тип развёртки : Чересстрочная
Метод сохранения типа развёртки : Раздельные поля
Порядок развёртки : Верхнее поле первое
Бит/(Пиксели*Кадры) : 0.156
Размер потока : 4,96 Гбайт (88%)
Цветовой диапазон : Limited
Основные цвета : BT.709
Характеристики трансфера : BT.709
Коэффициенты матрицы : BT.709
Аудио #1
Идентификатор : 4352 (0x1100)
Идентификатор меню : 1 (0x1)
Формат : AC-3
Формат/Информация : Audio Coding 3
Расширение режима : CM (complete main)
Параметр Endianness формата : Big
Идентификатор кодека : 129
Продолжительность : 1 ч. 28 м.
Вид битрейта : Постоянный
Битрейт : 448 Кбит/сек
Каналы : 6 каналов
Расположение каналов : Front: L C R, Side: L R, LFE
Частота : 48,0 КГц
Частота кадров : 31,250 кадров/сек (1536 spf)
Метод сжатия : С потерями
Задержка видео : 40 мс.
Размер потока : 282 Мбайт (5%)
Язык : Russian
Аудио #2
Идентификатор : 4353 (0x1101)
Идентификатор меню : 1 (0x1)
Формат : MPEG Audio
Версия формата : Version 1
Профиль формата : Layer 2
Идентификатор кодека : 4
Продолжительность : 1 ч. 28 м.
Вид битрейта : Постоянный
Битрейт : 192 Кбит/сек
Каналы : 2 канала
Частота : 48,0 КГц
Метод сжатия : С потерями
Задержка видео : 40 мс.
Размер потока : 121 Мбайт (2%)
Язык : Russian

Скриншот c названием фильма

Скачать

Скачать бесплатно и на максимальной скорости!

Как скачивать? · Что такое торрент? · Рейтинг и ограничения




Вы не можете начинать темы
Вы не можете отвечать на сообщения
Вы не можете редактировать свои сообщения
Вы не можете удалять свои сообщения
Вы не можете голосовать в опросах
Вы не можете прикреплять файлы к сообщениям
Вы не можете скачивать файлы