Двуличная девчонка! / Switch Girl! (Aida Natsumi / Аида Нацуми) [8/8] [RUS(int)] [Япония, 2012, Романтика, комедия, школа, HDTVRip]


by Boris G ®
23-Дек-2018 15:28

[Цитировать]

Двуличная девчонка! / Switch Girl! (Aida Natsumi / Аида Нацуми) [8/8] [RUS(int)] [Япония, 2012, Романтика, комедия, школа, HDTVRip]

Двуличная девчонка!/ Switch Girl!

-Страна: Япония
Год выпуска: 2012
Жанр: Романтика, комедия, школа-Количество серий: 8/8
Продолжительность:Серия~ 27 минут
Режиссер: Aida Natsumi / Аида Нацуми-Перевод: Фансаб-группа«Альянс»
Язык: Русский / мужской
Озвучка: Одноголосый закадровый «Black»-В ролях: Нисиути Мария - Тамия Ника
Кирияма Рэн - Камияма Арата
Саката Рикако- Нинохара
Хару- Дзёгасаки Рейка
Синохара Цугуми- Кизаки Акира-Описание: Ника Тамия - самая крутая и красивая девушка в школе, просто идеал. Однако, приходя домой, она превращается в совершенно другого человека: типичного отаку, целыми днями играющего в видео-игры, читающего мангу и носящего чёрти что. В школе, естественно, об этом знает только лучшая подруга.
И вот однажды о секрете узнаёт новенький ученик в её классе, Камияма Арата. Так у Ники появляется огромная проблема. Но, оказывается, у Араты тоже есть свои скелеты в шкафу...-Сэмпл: http://multi-up.com/865667-Неотключаемые субтитры: Без хардсаба
Качество видео: HDTVRip
Формат: MP4-Видео: MPEG4 Video (H264), 1920x1080, 29.97fps, 4 000 Kbps
Аудио: AC3, 48.0Hz, 2 ch, stereo, 224 Kbps-Хотите посмотреть фильм? Но не хотите читать субтитры? Озвучка фильмов на заказ(всё бесплатно) писать в ЛС.-

Отличия

http://rutracker.org/forum/viewtopic.php?t=4236103
наличе русской озвучки,отсутствие субтитров,отсутствие оригинальной звуковой дорожки

MediaInfo

General
Complete name : D:\Мои видиозаписи\раздачи\Switch Girl!!!\Switch Girl!! ep01.mp4
Format : MPEG-4
Format profile : Base Media
Codec ID : isom
File size : 814 MiB
Duration : 26mn 59s
Overall bit rate mode : Variable
Overall bit rate : 4 216 Kbps
Encoded date : UTC 2013-05-13 17:57:17
Tagged date : UTC 2013-05-13 17:57:17
Writing application : Yamb 2.1.0.0
Video
ID : 1
Format : AVC
Format/Info : Advanced Video Codec
Format profile : High@L4.0
Format settings, CABAC : Yes
Format settings, ReFrames : 3 frames
Codec ID : avc1
Codec ID/Info : Advanced Video Coding
Duration : 26mn 59s
Bit rate mode : Variable
Bit rate : 4 000 Kbps
Maximum bit rate : 8 000 Kbps
Width : 1 920 pixels
Height : 1 080 pixels
Display aspect ratio : 16:9
Frame rate mode : Constant
Frame rate : 29.970 fps
Standard : NTSC
Color space : YUV
Chroma subsampling : 4:2:0
Bit depth : 8 bits
Scan type : Progressive
Bits/(Pixel*Frame) : 0.064
Stream size : 770 MiB (95%)
Writing library : x264 core 115
Encoding settings : cabac=1 / ref=3 / deblock=1:0:0 / analyse=0x3:0x133 / me=umh / subme=9 / psy=1 / psy_rd=1.00:0.00 / mixed_ref=1 / me_range=24 / chroma_me=1 / trellis=2 / 8x8dct=1 / cqm=2 / deadzone=21,11 / fast_pskip=1 / chroma_qp_offset=-4 / threads=12 / sliced_threads=0 / slices=1 / nr=0 / decimate=1 / interlaced=0 / bluray_compat=0 / constrained_intra=0 / bframes=3 / b_pyramid=0 / b_adapt=2 / b_bias=0 / direct=3 / weightb=1 / open_gop=0 / weightp=2 / keyint=250 / keyint_min=25 / scenecut=40 / intra_refresh=0 / rc_lookahead=60 / rc=2pass / mbtree=1 / bitrate=4000 / ratetol=1.0 / qcomp=0.60 / qpmin=5 / qpmax=69 / qpstep=4 / cplxblur=20.0 / qblur=0.5 / vbv_maxrate=8000 / vbv_bufsize=7995 / nal_hrd=vbr / ip_ratio=1.40 / aq=1:1.00
Encoded date : UTC 2013-05-13 17:57:17
Tagged date : UTC 2013-05-13 17:57:34
Color primaries : BT.709
Transfer characteristics : BT.709
Matrix coefficients : BT.709
Audio
ID : 2
Format : AC-3
Format/Info : Audio Coding 3
Mode extension : CM (complete main)
Format settings, Endianness : Big
Codec ID : ac-3
Duration : 26mn 59s
Bit rate mode : Constant
Bit rate : 224 Kbps
Channel(s) : 2 channels
Channel positions : Front: L R
Sampling rate : 48.0 KHz
Bit depth : 16 bits
Compression mode : Lossy
Stream size : 43.3 MiB (5%)
Encoded date : UTC 2013-05-13 17:57:25
Tagged date : UTC 2013-05-13 17:57:34

Скриншоты

Скачать

Скачать бесплатно и на максимальной скорости!

Как скачивать? · Что такое торрент? · Рейтинг и ограничения




Вы не можете начинать темы
Вы не можете отвечать на сообщения
Вы не можете редактировать свои сообщения
Вы не можете удалять свои сообщения
Вы не можете голосовать в опросах
Вы не можете прикреплять файлы к сообщениям
Вы не можете скачивать файлы