Любить нельзя забыть (Вячеслав Лавров) [2013, Россия, мелодрама, HDTV 1080i] Original Rus


Размер:  5.81 GB   |    Зарегистрирован:  4 месяца 24 дня   |    Скачан:  0 раз

Полного источника не было: Никогда

by Virtuoz ®
26-Мар-2018 05:23

[Цитировать]

Любить нельзя забыть (Вячеслав Лавров) [2013, Россия, мелодрама, HDTV 1080i] Original Rus

Любить нельзя забыть
Страна: Россия
Студия: Star Media
Жанр: Мелодрама
Год выпуска: 2013
Продолжительность: 01:27:39
Перевод: Не требуется
Субтитры: Нет
Оригинальная аудио дорожка: Русский
Режиссёр: Вячеслав Лавров
В ролях: Наталия Антонова, Дмитрий Бедерин, Полина Тарасова, Светлана Галка, Елена Стародуб, Руслан Джайбеков, Павел Шингарев, Анжелика Волчкова, Ева Авеева, Людмила Гаврилова, Александр Курицын, Олег Леушин, Сергей Чурбаков, Светлана Варецкая, Вера Молчанова, Вячеслав Лавров, Даниил Дунц, Марина Коташенко
Описание: Марина еще молодая женщина, но уже живет с мыслью, что вся жизнь прожита и ничего нового впереди ее не ждет. Она воспитывает двенадцатилетнюю дочь Ксюшу, и работает учителем в художественной школе. Однажды она знакомится с Никитой. И у них начинается роман. Никита очень сильно влюблен в Марину и хочет на ней жениться. И все бы хорошо, вот только разница между влюбленными значительная, Марине 37, а Никите всего 20. Это больше всего и смущает Марину. Она не видит будущего между их отношениями и в конце концов сбегает от своей любви в город своих родителей. А там судьба дает ей еще один шанс стать счастливой. Родители знакомят ее с Игорем. Он положительный во всех отношениях мужчина и влюблен в Марину. Пара собирается пожениться. Но вот отступит ли просто так Никита, отпустит ли он любимую женщину без борьбы за нее?
Доп. информация:
Автор релиза -
Источник аудио и видео - HDTV 1080i TS - моя запись с канала Наш Кинороман HD
За обложку спасибо Decom



Сэмпл: https://yadi.sk/i/jOe7NhsJ3G5CBp
Рекламы нет!
Качество видео: HDTV 1080i
Формат видео: TS
Видео: MPEG-4 AVC, 1920x1080 (16:9), 25.000 fps, 8368 kbps, 0.161 bit/pixel
Аудио 1: Русский AC3, 48000 Гц, 6ch, 448 kbps
Аудио 2: Русский MP2, 48000 Гц, 2ch, 192 kbps

MediaInfo

Общее
Идентификатор : 1 (0x1)
Полное имя : D:\Любить.нельзя.забыть.2012.HDTV.1080i-ylnian.ts
Формат : MPEG-TS
Размер файла : 5,81 Гбайт
Продолжительность : 1 ч. 27 м.
Режим общего битрейта : Переменный
Общий поток : 9483 Кбит/сек
Максимальный общий битрейт : 35,5 Мбит/сек
Видео
Идентификатор : 4113 (0x1011)
Идентификатор меню : 1 (0x1)
Формат : AVC
Формат/Информация : Advanced Video Codec
Профиль формата : Main@L4
Параметр CABAC формата : Да
Параметр ReFrames формата : 4 кадра
Параметр GOP формата : M=1, N=32
Идентификатор кодека : 27
Продолжительность : 1 ч. 27 м.
Вид битрейта : Переменный
Битрейт : 8368 Кбит/сек
Максимальный битрейт : 40,0 Мбит/сек
Ширина : 1920 пикселей
Высота : 1080 пикселей
Соотношение сторон : 16:9
Частота кадров : 25,000 кадров/сек
Цветовое пространство : YUV
Субдискретизация насыщенности : 4:2:0
Битовая глубина : 8 бит
Тип развёртки : Чересстрочная
Метод сохранения типа развёртки : Раздельные поля
Порядок развёртки : Верхнее поле первое
Бит/(Пиксели*Кадры) : 0.161
Размер потока : 5,12 Гбайт (88%)
Цветовой диапазон : Limited
Основные цвета : BT.709
Характеристики трансфера : BT.709
Коэффициенты матрицы : BT.709
Аудио #1
Идентификатор : 4352 (0x1100)
Идентификатор меню : 1 (0x1)
Формат : AC-3
Формат/Информация : Audio Coding 3
Расширение режима : CM (complete main)
Параметр Endianness формата : Big
Идентификатор кодека : 129
Продолжительность : 1 ч. 27 м.
Вид битрейта : Постоянный
Битрейт : 448 Кбит/сек
Каналы : 6 каналов
Расположение каналов : Front: L C R, Side: L R, LFE
Частота : 48,0 КГц
Частота кадров : 31,250 кадров/сек (1536 spf)
Метод сжатия : С потерями
Задержка видео : 40 мс.
Размер потока : 281 Мбайт (5%)
Язык : Russian
Аудио #2
Идентификатор : 4353 (0x1101)
Идентификатор меню : 1 (0x1)
Формат : MPEG Audio
Версия формата : Version 1
Профиль формата : Layer 2
Идентификатор кодека : 4
Продолжительность : 1 ч. 27 м.
Вид битрейта : Постоянный
Битрейт : 192 Кбит/сек
Каналы : 2 канала
Частота : 48,0 КГц
Метод сжатия : С потерями
Задержка видео : 40 мс.
Размер потока : 120 Мбайт (2%)
Язык : Russian

Скриншот c названием фильма




Вы не можете начинать темы
Вы не можете отвечать на сообщения
Вы не можете редактировать свои сообщения
Вы не можете удалять свои сообщения
Вы не можете голосовать в опросах
Вы не можете прикреплять файлы к сообщениям
Вы можете скачивать файлы