Гороскоп на удачу (Арман Геворгян) [2015, Россия, комедия, мелодрама, HDTV 1080i] Original Rus


by Virtuoz ®
26-Мар-2018 08:23

[Цитировать]

Гороскоп на удачу (Арман Геворгян) [2015, Россия, комедия, мелодрама, HDTV 1080i] Original Rus

Гороскоп на удачу
Страна: Россия
Студия: Raketa Film, Dr. PICTURE Studios, Централ Партнершип
Жанр: Комедия, мелодрама
Год выпуска: 2015
Продолжительность: 01:32:34
Перевод: Не требуется
Субтитры: Нет
Оригинальная аудио дорожка: Русский
Режиссёр: Арман Геворгян
В ролях: Дмитрий Ендальцев, Светлана Ходченкова, Анна Чиповская, Тимур Батрутдинов, Борис Смолкин, Виталий Хаев, Гоша Куценко, Дмитрий Нагиев, Дмитрий Хрусталёв, Михаил Самота
Описание: В руки Макса попадает «счастливый» гороскоп, которому он должен следовать 30 дней, выполняя все его безумные предписания, чтобы добиться расположения недоступной прежде красавицы и удачи во всех делах. Но в один прекрасный день гороскоп Макса подменяют...
Доп. информация:
Автор релиза -
Источник аудио и видео - HDTV 1080i TS - моя запись с канала Наш Кинороман HD



Сэмпл: https://yadi.sk/i/b3D3miDe3G43QY
Рекламы нет!
Качество видео: HDTV 1080i
Формат видео: TS
Видео: MPEG-4 AVC, 1920x1080 (16:9), 25.000 fps, 7553 kbps, 0.146 bit/pixel
Аудио 1: Русский AC3, 48000 Гц, 6ch, 448 kbps
Аудио 2: Русский MP2, 48000 Гц, 2ch, 192 kbps

MediaInfo

Общее
Идентификатор : 1 (0x1)
Полное имя : D:\Гороскоп.на.удачу.2015.HDTV.1080i-ylnian.ts
Формат : MPEG-TS
Размер файла : 5,58 Гбайт
Продолжительность : 1 ч. 32 м.
Режим общего битрейта : Переменный
Общий поток : 8625 Кбит/сек
Видео
Идентификатор : 3551 (0xDDF)
Идентификатор меню : 17015 (0x4277)
Формат : AVC
Формат/Информация : Advanced Video Codec
Профиль формата : Main@L4
Параметр CABAC формата : Да
Параметр ReFrames формата : 4 кадра
Параметр GOP формата : M=1, N=32
Идентификатор кодека : 27
Продолжительность : 1 ч. 32 м.
Битрейт : 7553 Кбит/сек
Ширина : 1920 пикселей
Высота : 1080 пикселей
Соотношение сторон : 16:9
Частота кадров : 25,000 кадров/сек
Цветовое пространство : YUV
Субдискретизация насыщенности : 4:2:0
Битовая глубина : 8 бит
Тип развёртки : Чересстрочная
Метод сохранения типа развёртки : Раздельные поля
Порядок развёртки : Верхнее поле первое
Бит/(Пиксели*Кадры) : 0.146
Размер потока : 4,88 Гбайт (88%)
Цветовой диапазон : Limited
Основные цвета : BT.709
Характеристики трансфера : BT.709
Коэффициенты матрицы : BT.709
Аудио #1
Идентификатор : 3552 (0xDE0)
Идентификатор меню : 17015 (0x4277)
Формат : AC-3
Формат/Информация : Audio Coding 3
Расширение режима : CM (complete main)
Параметр Endianness формата : Big
Идентификатор кодека : 6
Продолжительность : 1 ч. 32 м.
Вид битрейта : Постоянный
Битрейт : 448 Кбит/сек
Каналы : 6 каналов
Расположение каналов : Front: L C R, Side: L R, LFE
Частота : 48,0 КГц
Частота кадров : 31,250 кадров/сек (1536 spf)
Метод сжатия : С потерями
Размер потока : 297 Мбайт (5%)
Язык : Russian
Аудио #2
Идентификатор : 3553 (0xDE1)
Идентификатор меню : 17015 (0x4277)
Формат : MPEG Audio
Версия формата : Version 1
Профиль формата : Layer 2
Идентификатор кодека : 3
Продолжительность : 1 ч. 32 м.
Вид битрейта : Постоянный
Битрейт : 192 Кбит/сек
Каналы : 2 канала
Частота : 48,0 КГц
Метод сжатия : С потерями
Размер потока : 127 Мбайт (2%)
Язык : Russian

Скриншот c названием фильма

Скачать

Скачать бесплатно и на максимальной скорости!

Как скачивать? · Что такое торрент? · Рейтинг и ограничения




Вы не можете начинать темы
Вы не можете отвечать на сообщения
Вы не можете редактировать свои сообщения
Вы не можете удалять свои сообщения
Вы не можете голосовать в опросах
Вы не можете прикреплять файлы к сообщениям
Вы не можете скачивать файлы