Отомен / Otomen (Tanimura Masaki / Танимура Масаки) [12/12] [RUS(int)] [Япония, 2009, Романтика, комедия, школа, TVRip]


by Boris G ®
23-Дек-2018 15:28

[Цитировать]

Отомен / Otomen (Tanimura Masaki / Танимура Масаки) [12/12] [RUS(int)] [Япония, 2009, Романтика, комедия, школа, TVRip]

Отомен / Otomen
-Страна: Япония
Год выпуска: 2009
Жанр: Романтика, комедия, школа-Количество серий: 12/12
Продолжительность:Серия~ 40 минут-Режиссер: Tanimura Masaki / Танимура Масаки-Язык: Русский
Озвучка: Одноголосый закадровый «Black»(стажер группы GREEN TEA)-В ролях: Okada Masaki, Kaho, Kimura Ryo, Seto Koji, Yanagihara Kanako, Tsurumi Shingo, Yamamoto Mirai, Takada Nobuhiko-Описание: История популярного в школе парня Masamune Асука, лучшего по кендо в стране. Тем не менее, под его крутой внешностью, скрывается сладкоежка и фанатик седзе манги, который в свободное время занимается шитьем и готовкой разных няшек на кухне. Но в школу переведена новая ученица Miyakozuka Рё, которая знает про его секретные способности к домоводству, парню есть чего боятся - девушка есть девушка, и его крутой образ будет разрушен одним её словом, но может, есть способ это предотвратить?-Сэмпл: http://multi-up.com/863497-Доп. информация:
Озвучено по субтитрам фансаб-группы "Альянс"
Координация и работа со звуком: Анастасия Романова и Ольга Гринтиева-Неотключаемые субтитры: Без хардсаба
Качество видео: TVRip
Формат: AVI-Видео: 704x396 (1.78:1), 29.970 fps, XviD build 50 ~1123 kbps avg, 0.13 bit/pixel
Аудио: 48 kHz, MPEG Layer 3, 2 ch, ~224.00 kbps avg-

Отличия

http://rutracker.org/forum/viewtopic.php?t=2268602
наличе русской озвучки,отсутствие субтитров,отсутствие оригинальной звуковой дорожки

MediaInfo

General
Complete name : D:\Мои видиозаписи\раздачи\Otomen\Otomen 1.avi
Format : AVI
Format/Info : Audio Video Interleave
File size : 355 MiB
Duration : 36mn 29s
Overall bit rate : 1 359 Kbps
Writing library : VirtualDub build 32842/release
Video
ID : 0
Format : MPEG-4 Visual
Format profile : Advanced Simple@L5
Format settings, BVOP : 2
Format settings, QPel : No
Format settings, GMC : No warppoints
Format settings, Matrix : Default (H.263)
Codec ID : XVID
Codec ID/Hint : XviD
Duration : 36mn 29s
Bit rate : 1 123 Kbps
Width : 704 pixels
Height : 396 pixels
Display aspect ratio : 16:9
Frame rate : 29.970 fps
Color space : YUV
Chroma subsampling : 4:2:0
Bit depth : 8 bits
Scan type : Progressive
Compression mode : Lossy
Bits/(Pixel*Frame) : 0.134
Stream size : 293 MiB (83%)
Writing library : XviD 1.2.1 (UTC 2008-12-04)
Audio
ID : 1
Format : MPEG Audio
Format version : Version 1
Format profile : Layer 3
Codec ID : 55
Codec ID/Hint : MP3
Duration : 36mn 29s
Bit rate mode : Constant
Bit rate : 224 Kbps
Channel(s) : 2 channels
Sampling rate : 48.0 KHz
Compression mode : Lossy
Stream size : 58.5 MiB (16%)
Alignment : Split accross interleaves
Interleave, duration : 33 ms (1.00 video frame)
Interleave, preload duration : 500 ms

Скриншоты

Скачать

Скачать бесплатно и на максимальной скорости!

Как скачивать? · Что такое торрент? · Рейтинг и ограничения




Вы не можете начинать темы
Вы не можете отвечать на сообщения
Вы не можете редактировать свои сообщения
Вы не можете удалять свои сообщения
Вы не можете голосовать в опросах
Вы не можете прикреплять файлы к сообщениям
Вы не можете скачивать файлы