На море! (Ярослав Чеважевский) [2009, Россия, комедия, HDTV 1080i] Original Rus


by Virtuoz ®
26-Мар-2018 08:23

[Цитировать]

На море! (Ярослав Чеважевский) [2009, Россия, комедия, HDTV 1080i] Original Rus

На море!
Страна: Россия
Студия: Централ Партнершип
Жанр: Комедия
Год выпуска: 2009
Продолжительность: 01:38:22
Перевод: Не требуется
Субтитры: Нет
Оригинальная аудио дорожка: Русский
Режиссёр: Ярослав Чеважевский
В ролях: Ярослав Чеважевский, Алёна Бабенко, Инга Оболдина, Юрий Колокольников, Павел Деревянко, Ульяна Ворожейкина, Сюзанна Шпак, Евгения Лютая, Курт Глокцин, Бритта Шмеллинг
Описание: Две семьи с друзьями решают провести новогодние каникулы большой и шумной компанией на Канарских островах. Пока в России холодная зима, они будут наслаждаться солнцем и морем. Казалось бы, нашему туристу ничто не может помешать. Однако обстоятельства не позволят им не то что искупаться, а даже одним глазком увидеть море.
Доп. информация:
Автор релиза -
Источник аудио и видео - HDTV 1080i TS - моя запись с канала Наш Кинороман HD



Сэмпл: https://yadi.sk/i/1kLWNytf3FgPpp
Качество видео: HDTV 1080i
Формат видео: TS
Видео: MPEG-4 AVC, 1920x1080 (16:9), 25.000 fps, 9301 kbps, 0.179 bit/pixel
Аудио 1: Русский AC3, 48000 Гц, 6ch, 448 kbps
Аудио 2: Русский MP2, 48000 Гц, 2ch, 192 kbps

MediaInfo

Общее
Идентификатор : 1 (0x1)
Полное имя : D:\На.море.2008.HDTV.1080i-ylnian.ts
Формат : MPEG-TS
Размер файла : 7,19 Гбайт
Продолжительность : 1 ч. 38 м.
Режим общего битрейта : Переменный
Общий поток : 10,5 Мбит/сек
Видео
Идентификатор : 3551 (0xDDF)
Идентификатор меню : 17015 (0x4277)
Формат : AVC
Формат/Информация : Advanced Video Codec
Профиль формата : Main@L4
Параметр CABAC формата : Да
Параметр ReFrames формата : 4 кадра
Идентификатор кодека : 27
Продолжительность : 1 ч. 38 м.
Битрейт : 9301 Кбит/сек
Ширина : 1920 пикселей
Высота : 1080 пикселей
Соотношение сторон : 16:9
Частота кадров : 25,000 кадров/сек
Цветовое пространство : YUV
Субдискретизация насыщенности : 4:2:0
Битовая глубина : 8 бит
Тип развёртки : Чересстрочная
Метод сохранения типа развёртки : Раздельные поля
Порядок развёртки : Верхнее поле первое
Бит/(Пиксели*Кадры) : 0.179
Размер потока : 6,39 Гбайт (89%)
Цветовой диапазон : Limited
Основные цвета : BT.709
Характеристики трансфера : BT.709
Коэффициенты матрицы : BT.709
Аудио #1
Идентификатор : 3552 (0xDE0)
Идентификатор меню : 17015 (0x4277)
Формат : AC-3
Формат/Информация : Audio Coding 3
Расширение режима : CM (complete main)
Параметр Endianness формата : Big
Идентификатор кодека : 6
Продолжительность : 1 ч. 38 м.
Вид битрейта : Постоянный
Битрейт : 448 Кбит/сек
Каналы : 6 каналов
Расположение каналов : Front: L C R, Side: L R, LFE
Частота : 48,0 КГц
Частота кадров : 31,250 кадров/сек (1536 spf)
Метод сжатия : С потерями
Размер потока : 315 Мбайт (4%)
Язык : Russian
Аудио #2
Идентификатор : 3553 (0xDE1)
Идентификатор меню : 17015 (0x4277)
Формат : MPEG Audio
Версия формата : Version 1
Профиль формата : Layer 2
Идентификатор кодека : 3
Продолжительность : 1 ч. 38 м.
Вид битрейта : Постоянный
Битрейт : 192 Кбит/сек
Каналы : 2 канала
Частота : 48,0 КГц
Метод сжатия : С потерями
Размер потока : 135 Мбайт (2%)
Язык : Russian

Сравнение

DVD --->>> HDTV 1080i - http://screenshotcomparison.com/comparison/203376

Скриншот c названием фильма

Скачать

Скачать бесплатно и на максимальной скорости!

Как скачивать? · Что такое торрент? · Рейтинг и ограничения




Вы не можете начинать темы
Вы не можете отвечать на сообщения
Вы не можете редактировать свои сообщения
Вы не можете удалять свои сообщения
Вы не можете голосовать в опросах
Вы не можете прикреплять файлы к сообщениям
Вы не можете скачивать файлы